<?xml version="1.0" standalone="no"?>
<!DOCTYPE svg PUBLIC "-//W3C//DTD SVG 1.1//EN" "http://www.w3.org/Graphics/SVG/1.1/DTD/svg11.dtd" >
<svg xmlns="http://www.w3.org/2000/svg" xmlns:xlink="http://www.w3.org/1999/xlink" version="1.1">
<metadata>
Created by FontForge 20170731 at Thu Oct 21 11:18:13 2021
 By Aleksey,,,
Copyright 2020 The Flow Project Authors (https://github.com/HYPD/flow-typeface)
</metadata>
<defs>
<font id="FlowCircular-Regular" horiz-adv-x="562" >
  <font-face 
    font-family="Flow Circular"
    font-weight="400"
    font-stretch="normal"
    units-per-em="1000"
    panose-1="0 0 0 0 0 0 0 0 0 0"
    ascent="800"
    descent="-200"
    x-height="470"
    cap-height="470"
    bbox="-150 170 712 470"
    underline-thickness="50"
    underline-position="-175"
    unicode-range="U+000D-2C73"
  />
<missing-glyph 
d="M-150 321q0 43 19.5 76.5t53 53t76.5 19.5h564q43 0 76.5 -19.5t53 -53t19.5 -76.5v-2q0 -43 -19.5 -76.5t-53 -53t-76.5 -19.5h-564q-43 0 -76.5 19.5t-53 53t-19.5 76.5v2z" />
    <glyph glyph-name=".notdef" 
d="M-150 321q0 43 19.5 76.5t53 53t76.5 19.5h564q43 0 76.5 -19.5t53 -53t19.5 -76.5v-2q0 -43 -19.5 -76.5t-53 -53t-76.5 -19.5h-564q-43 0 -76.5 19.5t-53 53t-19.5 76.5v2z" />
    <glyph glyph-name=".null" horiz-adv-x="0" 
 />
    <glyph glyph-name="nonmarkingreturn" horiz-adv-x="333" 
 />
    <glyph glyph-name="CR" unicode="&#xd;" horiz-adv-x="600" 
 />
    <glyph glyph-name="space" unicode=" " horiz-adv-x="600" 
 />
    <glyph glyph-name="exclam" unicode="!" horiz-adv-x="286" 
d="M-150 321q0 43 19.5 76.5t53 53t76.5 19.5h288q43 0 76.5 -19.5t53 -53t19.5 -76.5v-2q0 -43 -19.5 -76.5t-53 -53t-76.5 -19.5h-288q-43 0 -76.5 19.5t-53 53t-19.5 76.5v2z" />
    <glyph glyph-name="quotedbl" unicode="&#x22;" horiz-adv-x="286" 
d="M-150 321q0 43 19.5 76.5t53 53t76.5 19.5h288q43 0 76.5 -19.5t53 -53t19.5 -76.5v-2q0 -43 -19.5 -76.5t-53 -53t-76.5 -19.5h-288q-43 0 -76.5 19.5t-53 53t-19.5 76.5v2z" />
    <glyph glyph-name="numbersign" unicode="#" horiz-adv-x="286" 
d="M-150 321q0 43 19.5 76.5t53 53t76.5 19.5h288q43 0 76.5 -19.5t53 -53t19.5 -76.5v-2q0 -43 -19.5 -76.5t-53 -53t-76.5 -19.5h-288q-43 0 -76.5 19.5t-53 53t-19.5 76.5v2z" />
    <glyph glyph-name="dollar" unicode="$" horiz-adv-x="286" 
d="M-150 321q0 43 19.5 76.5t53 53t76.5 19.5h288q43 0 76.5 -19.5t53 -53t19.5 -76.5v-2q0 -43 -19.5 -76.5t-53 -53t-76.5 -19.5h-288q-43 0 -76.5 19.5t-53 53t-19.5 76.5v2z" />
    <glyph glyph-name="percent" unicode="%" horiz-adv-x="286" 
d="M-150 321q0 43 19.5 76.5t53 53t76.5 19.5h288q43 0 76.5 -19.5t53 -53t19.5 -76.5v-2q0 -43 -19.5 -76.5t-53 -53t-76.5 -19.5h-288q-43 0 -76.5 19.5t-53 53t-19.5 76.5v2z" />
    <glyph glyph-name="ampersand" unicode="&#x26;" horiz-adv-x="286" 
d="M-150 321q0 43 19.5 76.5t53 53t76.5 19.5h288q43 0 76.5 -19.5t53 -53t19.5 -76.5v-2q0 -43 -19.5 -76.5t-53 -53t-76.5 -19.5h-288q-43 0 -76.5 19.5t-53 53t-19.5 76.5v2z" />
    <glyph glyph-name="quotesingle" unicode="'" horiz-adv-x="286" 
d="M-150 321q0 43 19.5 76.5t53 53t76.5 19.5h288q43 0 76.5 -19.5t53 -53t19.5 -76.5v-2q0 -43 -19.5 -76.5t-53 -53t-76.5 -19.5h-288q-43 0 -76.5 19.5t-53 53t-19.5 76.5v2z" />
    <glyph glyph-name="parenleft" unicode="(" horiz-adv-x="286" 
d="M-150 321q0 43 19.5 76.5t53 53t76.5 19.5h288q43 0 76.5 -19.5t53 -53t19.5 -76.5v-2q0 -43 -19.5 -76.5t-53 -53t-76.5 -19.5h-288q-43 0 -76.5 19.5t-53 53t-19.5 76.5v2z" />
    <glyph glyph-name="parenright" unicode=")" horiz-adv-x="286" 
d="M-150 321q0 43 19.5 76.5t53 53t76.5 19.5h288q43 0 76.5 -19.5t53 -53t19.5 -76.5v-2q0 -43 -19.5 -76.5t-53 -53t-76.5 -19.5h-288q-43 0 -76.5 19.5t-53 53t-19.5 76.5v2z" />
    <glyph glyph-name="asterisk" unicode="*" horiz-adv-x="286" 
d="M-150 321q0 43 19.5 76.5t53 53t76.5 19.5h288q43 0 76.5 -19.5t53 -53t19.5 -76.5v-2q0 -43 -19.5 -76.5t-53 -53t-76.5 -19.5h-288q-43 0 -76.5 19.5t-53 53t-19.5 76.5v2z" />
    <glyph glyph-name="plus" unicode="+" horiz-adv-x="286" 
d="M-150 321q0 43 19.5 76.5t53 53t76.5 19.5h288q43 0 76.5 -19.5t53 -53t19.5 -76.5v-2q0 -43 -19.5 -76.5t-53 -53t-76.5 -19.5h-288q-43 0 -76.5 19.5t-53 53t-19.5 76.5v2z" />
    <glyph glyph-name="comma" unicode="," horiz-adv-x="286" 
d="M-150 321q0 43 19.5 76.5t53 53t76.5 19.5h288q43 0 76.5 -19.5t53 -53t19.5 -76.5v-2q0 -43 -19.5 -76.5t-53 -53t-76.5 -19.5h-288q-43 0 -76.5 19.5t-53 53t-19.5 76.5v2z" />
    <glyph glyph-name="hyphen" unicode="-" horiz-adv-x="286" 
d="M-150 321q0 43 19.5 76.5t53 53t76.5 19.5h288q43 0 76.5 -19.5t53 -53t19.5 -76.5v-2q0 -43 -19.5 -76.5t-53 -53t-76.5 -19.5h-288q-43 0 -76.5 19.5t-53 53t-19.5 76.5v2z" />
    <glyph glyph-name="period" unicode="." horiz-adv-x="286" 
d="M-150 321q0 43 19.5 76.5t53 53t76.5 19.5h288q43 0 76.5 -19.5t53 -53t19.5 -76.5v-2q0 -43 -19.5 -76.5t-53 -53t-76.5 -19.5h-288q-43 0 -76.5 19.5t-53 53t-19.5 76.5v2z" />
    <glyph glyph-name="slash" unicode="/" horiz-adv-x="286" 
d="M-150 321q0 43 19.5 76.5t53 53t76.5 19.5h288q43 0 76.5 -19.5t53 -53t19.5 -76.5v-2q0 -43 -19.5 -76.5t-53 -53t-76.5 -19.5h-288q-43 0 -76.5 19.5t-53 53t-19.5 76.5v2z" />
    <glyph glyph-name="zero" unicode="0" 
d="M-150 321q0 43 19.5 76.5t53 53t76.5 19.5h564q43 0 76.5 -19.5t53 -53t19.5 -76.5v-2q0 -43 -19.5 -76.5t-53 -53t-76.5 -19.5h-564q-43 0 -76.5 19.5t-53 53t-19.5 76.5v2z" />
    <glyph glyph-name="one" unicode="1" 
d="M-150 321q0 43 19.5 76.5t53 53t76.5 19.5h564q43 0 76.5 -19.5t53 -53t19.5 -76.5v-2q0 -43 -19.5 -76.5t-53 -53t-76.5 -19.5h-564q-43 0 -76.5 19.5t-53 53t-19.5 76.5v2z" />
    <glyph glyph-name="two" unicode="2" 
d="M-150 321q0 43 19.5 76.5t53 53t76.5 19.5h564q43 0 76.5 -19.5t53 -53t19.5 -76.5v-2q0 -43 -19.5 -76.5t-53 -53t-76.5 -19.5h-564q-43 0 -76.5 19.5t-53 53t-19.5 76.5v2z" />
    <glyph glyph-name="three" unicode="3" 
d="M-150 321q0 43 19.5 76.5t53 53t76.5 19.5h564q43 0 76.5 -19.5t53 -53t19.5 -76.5v-2q0 -43 -19.5 -76.5t-53 -53t-76.5 -19.5h-564q-43 0 -76.5 19.5t-53 53t-19.5 76.5v2z" />
    <glyph glyph-name="four" unicode="4" 
d="M-150 321q0 43 19.5 76.5t53 53t76.5 19.5h564q43 0 76.5 -19.5t53 -53t19.5 -76.5v-2q0 -43 -19.5 -76.5t-53 -53t-76.5 -19.5h-564q-43 0 -76.5 19.5t-53 53t-19.5 76.5v2z" />
    <glyph glyph-name="five" unicode="5" 
d="M-150 321q0 43 19.5 76.5t53 53t76.5 19.5h564q43 0 76.5 -19.5t53 -53t19.5 -76.5v-2q0 -43 -19.5 -76.5t-53 -53t-76.5 -19.5h-564q-43 0 -76.5 19.5t-53 53t-19.5 76.5v2z" />
    <glyph glyph-name="six" unicode="6" 
d="M-150 321q0 43 19.5 76.5t53 53t76.5 19.5h564q43 0 76.5 -19.5t53 -53t19.5 -76.5v-2q0 -43 -19.5 -76.5t-53 -53t-76.5 -19.5h-564q-43 0 -76.5 19.5t-53 53t-19.5 76.5v2z" />
    <glyph glyph-name="seven" unicode="7" 
d="M-150 321q0 43 19.5 76.5t53 53t76.5 19.5h564q43 0 76.5 -19.5t53 -53t19.5 -76.5v-2q0 -43 -19.5 -76.5t-53 -53t-76.5 -19.5h-564q-43 0 -76.5 19.5t-53 53t-19.5 76.5v2z" />
    <glyph glyph-name="eight" unicode="8" 
d="M-150 321q0 43 19.5 76.5t53 53t76.5 19.5h564q43 0 76.5 -19.5t53 -53t19.5 -76.5v-2q0 -43 -19.5 -76.5t-53 -53t-76.5 -19.5h-564q-43 0 -76.5 19.5t-53 53t-19.5 76.5v2z" />
    <glyph glyph-name="nine" unicode="9" 
d="M-150 321q0 43 19.5 76.5t53 53t76.5 19.5h564q43 0 76.5 -19.5t53 -53t19.5 -76.5v-2q0 -43 -19.5 -76.5t-53 -53t-76.5 -19.5h-564q-43 0 -76.5 19.5t-53 53t-19.5 76.5v2z" />
    <glyph glyph-name="colon" unicode=":" horiz-adv-x="286" 
d="M-150 321q0 43 19.5 76.5t53 53t76.5 19.5h288q43 0 76.5 -19.5t53 -53t19.5 -76.5v-2q0 -43 -19.5 -76.5t-53 -53t-76.5 -19.5h-288q-43 0 -76.5 19.5t-53 53t-19.5 76.5v2z" />
    <glyph glyph-name="semicolon" unicode=";" horiz-adv-x="286" 
d="M-150 321q0 43 19.5 76.5t53 53t76.5 19.5h288q43 0 76.5 -19.5t53 -53t19.5 -76.5v-2q0 -43 -19.5 -76.5t-53 -53t-76.5 -19.5h-288q-43 0 -76.5 19.5t-53 53t-19.5 76.5v2z" />
    <glyph glyph-name="less" unicode="&#x3c;" horiz-adv-x="286" 
d="M-150 321q0 43 19.5 76.5t53 53t76.5 19.5h288q43 0 76.5 -19.5t53 -53t19.5 -76.5v-2q0 -43 -19.5 -76.5t-53 -53t-76.5 -19.5h-288q-43 0 -76.5 19.5t-53 53t-19.5 76.5v2z" />
    <glyph glyph-name="equal" unicode="=" horiz-adv-x="286" 
d="M-150 321q0 43 19.5 76.5t53 53t76.5 19.5h288q43 0 76.5 -19.5t53 -53t19.5 -76.5v-2q0 -43 -19.5 -76.5t-53 -53t-76.5 -19.5h-288q-43 0 -76.5 19.5t-53 53t-19.5 76.5v2z" />
    <glyph glyph-name="greater" unicode="&#x3e;" horiz-adv-x="286" 
d="M-150 321q0 43 19.5 76.5t53 53t76.5 19.5h288q43 0 76.5 -19.5t53 -53t19.5 -76.5v-2q0 -43 -19.5 -76.5t-53 -53t-76.5 -19.5h-288q-43 0 -76.5 19.5t-53 53t-19.5 76.5v2z" />
    <glyph glyph-name="question" unicode="?" horiz-adv-x="286" 
d="M-150 321q0 43 19.5 76.5t53 53t76.5 19.5h288q43 0 76.5 -19.5t53 -53t19.5 -76.5v-2q0 -43 -19.5 -76.5t-53 -53t-76.5 -19.5h-288q-43 0 -76.5 19.5t-53 53t-19.5 76.5v2z" />
    <glyph glyph-name="at" unicode="@" horiz-adv-x="286" 
d="M-150 321q0 43 19.5 76.5t53 53t76.5 19.5h288q43 0 76.5 -19.5t53 -53t19.5 -76.5v-2q0 -43 -19.5 -76.5t-53 -53t-76.5 -19.5h-288q-43 0 -76.5 19.5t-53 53t-19.5 76.5v2z" />
    <glyph glyph-name="A" unicode="A" 
d="M-150 321q0 43 19.5 76.5t53 53t76.5 19.5h564q43 0 76.5 -19.5t53 -53t19.5 -76.5v-2q0 -43 -19.5 -76.5t-53 -53t-76.5 -19.5h-564q-43 0 -76.5 19.5t-53 53t-19.5 76.5v2z" />
    <glyph glyph-name="B" unicode="B" 
d="M-150 321q0 43 19.5 76.5t53 53t76.5 19.5h564q43 0 76.5 -19.5t53 -53t19.5 -76.5v-2q0 -43 -19.5 -76.5t-53 -53t-76.5 -19.5h-564q-43 0 -76.5 19.5t-53 53t-19.5 76.5v2z" />
    <glyph glyph-name="C" unicode="C" 
d="M-150 321q0 43 19.5 76.5t53 53t76.5 19.5h564q43 0 76.5 -19.5t53 -53t19.5 -76.5v-2q0 -43 -19.5 -76.5t-53 -53t-76.5 -19.5h-564q-43 0 -76.5 19.5t-53 53t-19.5 76.5v2z" />
    <glyph glyph-name="D" unicode="D" 
d="M-150 321q0 43 19.5 76.5t53 53t76.5 19.5h564q43 0 76.5 -19.5t53 -53t19.5 -76.5v-2q0 -43 -19.5 -76.5t-53 -53t-76.5 -19.5h-564q-43 0 -76.5 19.5t-53 53t-19.5 76.5v2z" />
    <glyph glyph-name="E" unicode="E" 
d="M-150 321q0 43 19.5 76.5t53 53t76.5 19.5h564q43 0 76.5 -19.5t53 -53t19.5 -76.5v-2q0 -43 -19.5 -76.5t-53 -53t-76.5 -19.5h-564q-43 0 -76.5 19.5t-53 53t-19.5 76.5v2z" />
    <glyph glyph-name="F" unicode="F" horiz-adv-x="286" 
d="M-150 321q0 43 19.5 76.5t53 53t76.5 19.5h288q43 0 76.5 -19.5t53 -53t19.5 -76.5v-2q0 -43 -19.5 -76.5t-53 -53t-76.5 -19.5h-288q-43 0 -76.5 19.5t-53 53t-19.5 76.5v2z" />
    <glyph glyph-name="G" unicode="G" 
d="M-150 321q0 43 19.5 76.5t53 53t76.5 19.5h564q43 0 76.5 -19.5t53 -53t19.5 -76.5v-2q0 -43 -19.5 -76.5t-53 -53t-76.5 -19.5h-564q-43 0 -76.5 19.5t-53 53t-19.5 76.5v2z" />
    <glyph glyph-name="H" unicode="H" 
d="M-150 321q0 43 19.5 76.5t53 53t76.5 19.5h564q43 0 76.5 -19.5t53 -53t19.5 -76.5v-2q0 -43 -19.5 -76.5t-53 -53t-76.5 -19.5h-564q-43 0 -76.5 19.5t-53 53t-19.5 76.5v2z" />
    <glyph glyph-name="I" unicode="I" horiz-adv-x="286" 
d="M-150 321q0 43 19.5 76.5t53 53t76.5 19.5h288q43 0 76.5 -19.5t53 -53t19.5 -76.5v-2q0 -43 -19.5 -76.5t-53 -53t-76.5 -19.5h-288q-43 0 -76.5 19.5t-53 53t-19.5 76.5v2z" />
    <glyph glyph-name="J" unicode="J" horiz-adv-x="286" 
d="M-150 321q0 43 19.5 76.5t53 53t76.5 19.5h288q43 0 76.5 -19.5t53 -53t19.5 -76.5v-2q0 -43 -19.5 -76.5t-53 -53t-76.5 -19.5h-288q-43 0 -76.5 19.5t-53 53t-19.5 76.5v2z" />
    <glyph glyph-name="K" unicode="K" 
d="M-150 321q0 43 19.5 76.5t53 53t76.5 19.5h564q43 0 76.5 -19.5t53 -53t19.5 -76.5v-2q0 -43 -19.5 -76.5t-53 -53t-76.5 -19.5h-564q-43 0 -76.5 19.5t-53 53t-19.5 76.5v2z" />
    <glyph glyph-name="L" unicode="L" horiz-adv-x="286" 
d="M-150 321q0 43 19.5 76.5t53 53t76.5 19.5h288q43 0 76.5 -19.5t53 -53t19.5 -76.5v-2q0 -43 -19.5 -76.5t-53 -53t-76.5 -19.5h-288q-43 0 -76.5 19.5t-53 53t-19.5 76.5v2z" />
    <glyph glyph-name="M" unicode="M" 
d="M-150 321q0 43 19.5 76.5t53 53t76.5 19.5h564q43 0 76.5 -19.5t53 -53t19.5 -76.5v-2q0 -43 -19.5 -76.5t-53 -53t-76.5 -19.5h-564q-43 0 -76.5 19.5t-53 53t-19.5 76.5v2z" />
    <glyph glyph-name="N" unicode="N" 
d="M-150 321q0 43 19.5 76.5t53 53t76.5 19.5h564q43 0 76.5 -19.5t53 -53t19.5 -76.5v-2q0 -43 -19.5 -76.5t-53 -53t-76.5 -19.5h-564q-43 0 -76.5 19.5t-53 53t-19.5 76.5v2z" />
    <glyph glyph-name="O" unicode="O" 
d="M-150 321q0 43 19.5 76.5t53 53t76.5 19.5h564q43 0 76.5 -19.5t53 -53t19.5 -76.5v-2q0 -43 -19.5 -76.5t-53 -53t-76.5 -19.5h-564q-43 0 -76.5 19.5t-53 53t-19.5 76.5v2z" />
    <glyph glyph-name="P" unicode="P" 
d="M-150 321q0 43 19.5 76.5t53 53t76.5 19.5h564q43 0 76.5 -19.5t53 -53t19.5 -76.5v-2q0 -43 -19.5 -76.5t-53 -53t-76.5 -19.5h-564q-43 0 -76.5 19.5t-53 53t-19.5 76.5v2z" />
    <glyph glyph-name="Q" unicode="Q" 
d="M-150 321q0 43 19.5 76.5t53 53t76.5 19.5h564q43 0 76.5 -19.5t53 -53t19.5 -76.5v-2q0 -43 -19.5 -76.5t-53 -53t-76.5 -19.5h-564q-43 0 -76.5 19.5t-53 53t-19.5 76.5v2z" />
    <glyph glyph-name="R" unicode="R" 
d="M-150 321q0 43 19.5 76.5t53 53t76.5 19.5h564q43 0 76.5 -19.5t53 -53t19.5 -76.5v-2q0 -43 -19.5 -76.5t-53 -53t-76.5 -19.5h-564q-43 0 -76.5 19.5t-53 53t-19.5 76.5v2z" />
    <glyph glyph-name="S" unicode="S" 
d="M-150 321q0 43 19.5 76.5t53 53t76.5 19.5h564q43 0 76.5 -19.5t53 -53t19.5 -76.5v-2q0 -43 -19.5 -76.5t-53 -53t-76.5 -19.5h-564q-43 0 -76.5 19.5t-53 53t-19.5 76.5v2z" />
    <glyph glyph-name="T" unicode="T" horiz-adv-x="286" 
d="M-150 321q0 43 19.5 76.5t53 53t76.5 19.5h288q43 0 76.5 -19.5t53 -53t19.5 -76.5v-2q0 -43 -19.5 -76.5t-53 -53t-76.5 -19.5h-288q-43 0 -76.5 19.5t-53 53t-19.5 76.5v2z" />
    <glyph glyph-name="U" unicode="U" 
d="M-150 321q0 43 19.5 76.5t53 53t76.5 19.5h564q43 0 76.5 -19.5t53 -53t19.5 -76.5v-2q0 -43 -19.5 -76.5t-53 -53t-76.5 -19.5h-564q-43 0 -76.5 19.5t-53 53t-19.5 76.5v2z" />
    <glyph glyph-name="V" unicode="V" 
d="M-150 321q0 43 19.5 76.5t53 53t76.5 19.5h564q43 0 76.5 -19.5t53 -53t19.5 -76.5v-2q0 -43 -19.5 -76.5t-53 -53t-76.5 -19.5h-564q-43 0 -76.5 19.5t-53 53t-19.5 76.5v2z" />
    <glyph glyph-name="W" unicode="W" 
d="M-150 321q0 43 19.5 76.5t53 53t76.5 19.5h564q43 0 76.5 -19.5t53 -53t19.5 -76.5v-2q0 -43 -19.5 -76.5t-53 -53t-76.5 -19.5h-564q-43 0 -76.5 19.5t-53 53t-19.5 76.5v2z" />
    <glyph glyph-name="X" unicode="X" 
d="M-150 321q0 43 19.5 76.5t53 53t76.5 19.5h564q43 0 76.5 -19.5t53 -53t19.5 -76.5v-2q0 -43 -19.5 -76.5t-53 -53t-76.5 -19.5h-564q-43 0 -76.5 19.5t-53 53t-19.5 76.5v2z" />
    <glyph glyph-name="Y" unicode="Y" 
d="M-150 321q0 43 19.5 76.5t53 53t76.5 19.5h564q43 0 76.5 -19.5t53 -53t19.5 -76.5v-2q0 -43 -19.5 -76.5t-53 -53t-76.5 -19.5h-564q-43 0 -76.5 19.5t-53 53t-19.5 76.5v2z" />
    <glyph glyph-name="Z" unicode="Z" 
d="M-150 321q0 43 19.5 76.5t53 53t76.5 19.5h564q43 0 76.5 -19.5t53 -53t19.5 -76.5v-2q0 -43 -19.5 -76.5t-53 -53t-76.5 -19.5h-564q-43 0 -76.5 19.5t-53 53t-19.5 76.5v2z" />
    <glyph glyph-name="bracketleft" unicode="[" horiz-adv-x="286" 
d="M-150 321q0 43 19.5 76.5t53 53t76.5 19.5h288q43 0 76.5 -19.5t53 -53t19.5 -76.5v-2q0 -43 -19.5 -76.5t-53 -53t-76.5 -19.5h-288q-43 0 -76.5 19.5t-53 53t-19.5 76.5v2z" />
    <glyph glyph-name="backslash" unicode="\" horiz-adv-x="286" 
d="M-150 321q0 43 19.5 76.5t53 53t76.5 19.5h288q43 0 76.5 -19.5t53 -53t19.5 -76.5v-2q0 -43 -19.5 -76.5t-53 -53t-76.5 -19.5h-288q-43 0 -76.5 19.5t-53 53t-19.5 76.5v2z" />
    <glyph glyph-name="bracketright" unicode="]" horiz-adv-x="286" 
d="M-150 321q0 43 19.5 76.5t53 53t76.5 19.5h288q43 0 76.5 -19.5t53 -53t19.5 -76.5v-2q0 -43 -19.5 -76.5t-53 -53t-76.5 -19.5h-288q-43 0 -76.5 19.5t-53 53t-19.5 76.5v2z" />
    <glyph glyph-name="asciicircum" unicode="^" horiz-adv-x="286" 
d="M-150 321q0 43 19.5 76.5t53 53t76.5 19.5h288q43 0 76.5 -19.5t53 -53t19.5 -76.5v-2q0 -43 -19.5 -76.5t-53 -53t-76.5 -19.5h-288q-43 0 -76.5 19.5t-53 53t-19.5 76.5v2z" />
    <glyph glyph-name="underscore" unicode="_" horiz-adv-x="286" 
d="M-150 321q0 43 19.5 76.5t53 53t76.5 19.5h288q43 0 76.5 -19.5t53 -53t19.5 -76.5v-2q0 -43 -19.5 -76.5t-53 -53t-76.5 -19.5h-288q-43 0 -76.5 19.5t-53 53t-19.5 76.5v2z" />
    <glyph glyph-name="grave" unicode="`" horiz-adv-x="286" 
d="M-150 321q0 43 19.5 76.5t53 53t76.5 19.5h288q43 0 76.5 -19.5t53 -53t19.5 -76.5v-2q0 -43 -19.5 -76.5t-53 -53t-76.5 -19.5h-288q-43 0 -76.5 19.5t-53 53t-19.5 76.5v2z" />
    <glyph glyph-name="a" unicode="a" 
d="M-150 321q0 43 19.5 76.5t53 53t76.5 19.5h564q43 0 76.5 -19.5t53 -53t19.5 -76.5v-2q0 -43 -19.5 -76.5t-53 -53t-76.5 -19.5h-564q-43 0 -76.5 19.5t-53 53t-19.5 76.5v2z" />
    <glyph glyph-name="b" unicode="b" 
d="M-150 321q0 43 19.5 76.5t53 53t76.5 19.5h564q43 0 76.5 -19.5t53 -53t19.5 -76.5v-2q0 -43 -19.5 -76.5t-53 -53t-76.5 -19.5h-564q-43 0 -76.5 19.5t-53 53t-19.5 76.5v2z" />
    <glyph glyph-name="c" unicode="c" 
d="M-150 321q0 43 19.5 76.5t53 53t76.5 19.5h564q43 0 76.5 -19.5t53 -53t19.5 -76.5v-2q0 -43 -19.5 -76.5t-53 -53t-76.5 -19.5h-564q-43 0 -76.5 19.5t-53 53t-19.5 76.5v2z" />
    <glyph glyph-name="d" unicode="d" 
d="M-150 321q0 43 19.5 76.5t53 53t76.5 19.5h564q43 0 76.5 -19.5t53 -53t19.5 -76.5v-2q0 -43 -19.5 -76.5t-53 -53t-76.5 -19.5h-564q-43 0 -76.5 19.5t-53 53t-19.5 76.5v2z" />
    <glyph glyph-name="e" unicode="e" 
d="M-150 321q0 43 19.5 76.5t53 53t76.5 19.5h564q43 0 76.5 -19.5t53 -53t19.5 -76.5v-2q0 -43 -19.5 -76.5t-53 -53t-76.5 -19.5h-564q-43 0 -76.5 19.5t-53 53t-19.5 76.5v2z" />
    <glyph glyph-name="f" unicode="f" horiz-adv-x="286" 
d="M-150 321q0 43 19.5 76.5t53 53t76.5 19.5h288q43 0 76.5 -19.5t53 -53t19.5 -76.5v-2q0 -43 -19.5 -76.5t-53 -53t-76.5 -19.5h-288q-43 0 -76.5 19.5t-53 53t-19.5 76.5v2z" />
    <glyph glyph-name="g" unicode="g" 
d="M-150 321q0 43 19.5 76.5t53 53t76.5 19.5h564q43 0 76.5 -19.5t53 -53t19.5 -76.5v-2q0 -43 -19.5 -76.5t-53 -53t-76.5 -19.5h-564q-43 0 -76.5 19.5t-53 53t-19.5 76.5v2z" />
    <glyph glyph-name="h" unicode="h" 
d="M-150 321q0 43 19.5 76.5t53 53t76.5 19.5h564q43 0 76.5 -19.5t53 -53t19.5 -76.5v-2q0 -43 -19.5 -76.5t-53 -53t-76.5 -19.5h-564q-43 0 -76.5 19.5t-53 53t-19.5 76.5v2z" />
    <glyph glyph-name="i" unicode="i" horiz-adv-x="286" 
d="M-150 321q0 43 19.5 76.5t53 53t76.5 19.5h288q43 0 76.5 -19.5t53 -53t19.5 -76.5v-2q0 -43 -19.5 -76.5t-53 -53t-76.5 -19.5h-288q-43 0 -76.5 19.5t-53 53t-19.5 76.5v2z" />
    <glyph glyph-name="j" unicode="j" horiz-adv-x="286" 
d="M-150 321q0 43 19.5 76.5t53 53t76.5 19.5h288q43 0 76.5 -19.5t53 -53t19.5 -76.5v-2q0 -43 -19.5 -76.5t-53 -53t-76.5 -19.5h-288q-43 0 -76.5 19.5t-53 53t-19.5 76.5v2z" />
    <glyph glyph-name="k" unicode="k" 
d="M-150 321q0 43 19.5 76.5t53 53t76.5 19.5h564q43 0 76.5 -19.5t53 -53t19.5 -76.5v-2q0 -43 -19.5 -76.5t-53 -53t-76.5 -19.5h-564q-43 0 -76.5 19.5t-53 53t-19.5 76.5v2z" />
    <glyph glyph-name="l" unicode="l" horiz-adv-x="286" 
d="M-150 321q0 43 19.5 76.5t53 53t76.5 19.5h288q43 0 76.5 -19.5t53 -53t19.5 -76.5v-2q0 -43 -19.5 -76.5t-53 -53t-76.5 -19.5h-288q-43 0 -76.5 19.5t-53 53t-19.5 76.5v2z" />
    <glyph glyph-name="m" unicode="m" 
d="M-150 321q0 43 19.5 76.5t53 53t76.5 19.5h564q43 0 76.5 -19.5t53 -53t19.5 -76.5v-2q0 -43 -19.5 -76.5t-53 -53t-76.5 -19.5h-564q-43 0 -76.5 19.5t-53 53t-19.5 76.5v2z" />
    <glyph glyph-name="n" unicode="n" 
d="M-150 321q0 43 19.5 76.5t53 53t76.5 19.5h564q43 0 76.5 -19.5t53 -53t19.5 -76.5v-2q0 -43 -19.5 -76.5t-53 -53t-76.5 -19.5h-564q-43 0 -76.5 19.5t-53 53t-19.5 76.5v2z" />
    <glyph glyph-name="o" unicode="o" 
d="M-150 321q0 43 19.5 76.5t53 53t76.5 19.5h564q43 0 76.5 -19.5t53 -53t19.5 -76.5v-2q0 -43 -19.5 -76.5t-53 -53t-76.5 -19.5h-564q-43 0 -76.5 19.5t-53 53t-19.5 76.5v2z" />
    <glyph glyph-name="p" unicode="p" 
d="M-150 321q0 43 19.5 76.5t53 53t76.5 19.5h564q43 0 76.5 -19.5t53 -53t19.5 -76.5v-2q0 -43 -19.5 -76.5t-53 -53t-76.5 -19.5h-564q-43 0 -76.5 19.5t-53 53t-19.5 76.5v2z" />
    <glyph glyph-name="q" unicode="q" 
d="M-150 321q0 43 19.5 76.5t53 53t76.5 19.5h564q43 0 76.5 -19.5t53 -53t19.5 -76.5v-2q0 -43 -19.5 -76.5t-53 -53t-76.5 -19.5h-564q-43 0 -76.5 19.5t-53 53t-19.5 76.5v2z" />
    <glyph glyph-name="r" unicode="r" horiz-adv-x="286" 
d="M-150 321q0 43 19.5 76.5t53 53t76.5 19.5h288q43 0 76.5 -19.5t53 -53t19.5 -76.5v-2q0 -43 -19.5 -76.5t-53 -53t-76.5 -19.5h-288q-43 0 -76.5 19.5t-53 53t-19.5 76.5v2z" />
    <glyph glyph-name="s" unicode="s" 
d="M-150 321q0 43 19.5 76.5t53 53t76.5 19.5h564q43 0 76.5 -19.5t53 -53t19.5 -76.5v-2q0 -43 -19.5 -76.5t-53 -53t-76.5 -19.5h-564q-43 0 -76.5 19.5t-53 53t-19.5 76.5v2z" />
    <glyph glyph-name="t" unicode="t" horiz-adv-x="286" 
d="M-150 321q0 43 19.5 76.5t53 53t76.5 19.5h288q43 0 76.5 -19.5t53 -53t19.5 -76.5v-2q0 -43 -19.5 -76.5t-53 -53t-76.5 -19.5h-288q-43 0 -76.5 19.5t-53 53t-19.5 76.5v2z" />
    <glyph glyph-name="u" unicode="u" 
d="M-150 321q0 43 19.5 76.5t53 53t76.5 19.5h564q43 0 76.5 -19.5t53 -53t19.5 -76.5v-2q0 -43 -19.5 -76.5t-53 -53t-76.5 -19.5h-564q-43 0 -76.5 19.5t-53 53t-19.5 76.5v2z" />
    <glyph glyph-name="v" unicode="v" 
d="M-150 321q0 43 19.5 76.5t53 53t76.5 19.5h564q43 0 76.5 -19.5t53 -53t19.5 -76.5v-2q0 -43 -19.5 -76.5t-53 -53t-76.5 -19.5h-564q-43 0 -76.5 19.5t-53 53t-19.5 76.5v2z" />
    <glyph glyph-name="w" unicode="w" 
d="M-150 321q0 43 19.5 76.5t53 53t76.5 19.5h564q43 0 76.5 -19.5t53 -53t19.5 -76.5v-2q0 -43 -19.5 -76.5t-53 -53t-76.5 -19.5h-564q-43 0 -76.5 19.5t-53 53t-19.5 76.5v2z" />
    <glyph glyph-name="x" unicode="x" 
d="M-150 321q0 43 19.5 76.5t53 53t76.5 19.5h564q43 0 76.5 -19.5t53 -53t19.5 -76.5v-2q0 -43 -19.5 -76.5t-53 -53t-76.5 -19.5h-564q-43 0 -76.5 19.5t-53 53t-19.5 76.5v2z" />
    <glyph glyph-name="y" unicode="y" 
d="M-150 321q0 43 19.5 76.5t53 53t76.5 19.5h564q43 0 76.5 -19.5t53 -53t19.5 -76.5v-2q0 -43 -19.5 -76.5t-53 -53t-76.5 -19.5h-564q-43 0 -76.5 19.5t-53 53t-19.5 76.5v2z" />
    <glyph glyph-name="z" unicode="z" 
d="M-150 321q0 43 19.5 76.5t53 53t76.5 19.5h564q43 0 76.5 -19.5t53 -53t19.5 -76.5v-2q0 -43 -19.5 -76.5t-53 -53t-76.5 -19.5h-564q-43 0 -76.5 19.5t-53 53t-19.5 76.5v2z" />
    <glyph glyph-name="braceleft" unicode="{" horiz-adv-x="286" 
d="M-150 321q0 43 19.5 76.5t53 53t76.5 19.5h288q43 0 76.5 -19.5t53 -53t19.5 -76.5v-2q0 -43 -19.5 -76.5t-53 -53t-76.5 -19.5h-288q-43 0 -76.5 19.5t-53 53t-19.5 76.5v2z" />
    <glyph glyph-name="bar" unicode="|" horiz-adv-x="286" 
d="M-150 321q0 43 19.5 76.5t53 53t76.5 19.5h288q43 0 76.5 -19.5t53 -53t19.5 -76.5v-2q0 -43 -19.5 -76.5t-53 -53t-76.5 -19.5h-288q-43 0 -76.5 19.5t-53 53t-19.5 76.5v2z" />
    <glyph glyph-name="braceright" unicode="}" horiz-adv-x="286" 
d="M-150 321q0 43 19.5 76.5t53 53t76.5 19.5h288q43 0 76.5 -19.5t53 -53t19.5 -76.5v-2q0 -43 -19.5 -76.5t-53 -53t-76.5 -19.5h-288q-43 0 -76.5 19.5t-53 53t-19.5 76.5v2z" />
    <glyph glyph-name="asciitilde" unicode="~" horiz-adv-x="286" 
d="M-150 321q0 43 19.5 76.5t53 53t76.5 19.5h288q43 0 76.5 -19.5t53 -53t19.5 -76.5v-2q0 -43 -19.5 -76.5t-53 -53t-76.5 -19.5h-288q-43 0 -76.5 19.5t-53 53t-19.5 76.5v2z" />
    <glyph glyph-name="uni00A0" unicode="&#xa0;" horiz-adv-x="600" 
 />
    <glyph glyph-name="exclamdown" unicode="&#xa1;" horiz-adv-x="286" 
d="M-150 321q0 43 19.5 76.5t53 53t76.5 19.5h288q43 0 76.5 -19.5t53 -53t19.5 -76.5v-2q0 -43 -19.5 -76.5t-53 -53t-76.5 -19.5h-288q-43 0 -76.5 19.5t-53 53t-19.5 76.5v2z" />
    <glyph glyph-name="cent" unicode="&#xa2;" horiz-adv-x="286" 
d="M-150 321q0 43 19.5 76.5t53 53t76.5 19.5h288q43 0 76.5 -19.5t53 -53t19.5 -76.5v-2q0 -43 -19.5 -76.5t-53 -53t-76.5 -19.5h-288q-43 0 -76.5 19.5t-53 53t-19.5 76.5v2z" />
    <glyph glyph-name="sterling" unicode="&#xa3;" horiz-adv-x="286" 
d="M-150 321q0 43 19.5 76.5t53 53t76.5 19.5h288q43 0 76.5 -19.5t53 -53t19.5 -76.5v-2q0 -43 -19.5 -76.5t-53 -53t-76.5 -19.5h-288q-43 0 -76.5 19.5t-53 53t-19.5 76.5v2z" />
    <glyph glyph-name="currency" unicode="&#xa4;" horiz-adv-x="286" 
d="M-150 321q0 43 19.5 76.5t53 53t76.5 19.5h288q43 0 76.5 -19.5t53 -53t19.5 -76.5v-2q0 -43 -19.5 -76.5t-53 -53t-76.5 -19.5h-288q-43 0 -76.5 19.5t-53 53t-19.5 76.5v2z" />
    <glyph glyph-name="yen" unicode="&#xa5;" horiz-adv-x="286" 
d="M-150 321q0 43 19.5 76.5t53 53t76.5 19.5h288q43 0 76.5 -19.5t53 -53t19.5 -76.5v-2q0 -43 -19.5 -76.5t-53 -53t-76.5 -19.5h-288q-43 0 -76.5 19.5t-53 53t-19.5 76.5v2z" />
    <glyph glyph-name="brokenbar" unicode="&#xa6;" horiz-adv-x="286" 
d="M-150 321q0 43 19.5 76.5t53 53t76.5 19.5h288q43 0 76.5 -19.5t53 -53t19.5 -76.5v-2q0 -43 -19.5 -76.5t-53 -53t-76.5 -19.5h-288q-43 0 -76.5 19.5t-53 53t-19.5 76.5v2z" />
    <glyph glyph-name="section" unicode="&#xa7;" horiz-adv-x="286" 
d="M-150 321q0 43 19.5 76.5t53 53t76.5 19.5h288q43 0 76.5 -19.5t53 -53t19.5 -76.5v-2q0 -43 -19.5 -76.5t-53 -53t-76.5 -19.5h-288q-43 0 -76.5 19.5t-53 53t-19.5 76.5v2z" />
    <glyph glyph-name="dieresis" unicode="&#xa8;" horiz-adv-x="286" 
d="M-150 321q0 43 19.5 76.5t53 53t76.5 19.5h288q43 0 76.5 -19.5t53 -53t19.5 -76.5v-2q0 -43 -19.5 -76.5t-53 -53t-76.5 -19.5h-288q-43 0 -76.5 19.5t-53 53t-19.5 76.5v2z" />
    <glyph glyph-name="copyright" unicode="&#xa9;" horiz-adv-x="286" 
d="M-150 321q0 43 19.5 76.5t53 53t76.5 19.5h288q43 0 76.5 -19.5t53 -53t19.5 -76.5v-2q0 -43 -19.5 -76.5t-53 -53t-76.5 -19.5h-288q-43 0 -76.5 19.5t-53 53t-19.5 76.5v2z" />
    <glyph glyph-name="ordfeminine" unicode="&#xaa;" 
d="M-150 321q0 43 19.5 76.5t53 53t76.5 19.5h564q43 0 76.5 -19.5t53 -53t19.5 -76.5v-2q0 -43 -19.5 -76.5t-53 -53t-76.5 -19.5h-564q-43 0 -76.5 19.5t-53 53t-19.5 76.5v2z" />
    <glyph glyph-name="guillemotleft" unicode="&#xab;" horiz-adv-x="286" 
d="M-150 321q0 43 19.5 76.5t53 53t76.5 19.5h288q43 0 76.5 -19.5t53 -53t19.5 -76.5v-2q0 -43 -19.5 -76.5t-53 -53t-76.5 -19.5h-288q-43 0 -76.5 19.5t-53 53t-19.5 76.5v2z" />
    <glyph glyph-name="logicalnot" unicode="&#xac;" horiz-adv-x="286" 
d="M-150 321q0 43 19.5 76.5t53 53t76.5 19.5h288q43 0 76.5 -19.5t53 -53t19.5 -76.5v-2q0 -43 -19.5 -76.5t-53 -53t-76.5 -19.5h-288q-43 0 -76.5 19.5t-53 53t-19.5 76.5v2z" />
    <glyph glyph-name="uni00AD" unicode="&#xad;" 
d="M-150 321q0 43 19.5 76.5t53 53t76.5 19.5h564q43 0 76.5 -19.5t53 -53t19.5 -76.5v-2q0 -43 -19.5 -76.5t-53 -53t-76.5 -19.5h-564q-43 0 -76.5 19.5t-53 53t-19.5 76.5v2z" />
    <glyph glyph-name="registered" unicode="&#xae;" horiz-adv-x="286" 
d="M-150 321q0 43 19.5 76.5t53 53t76.5 19.5h288q43 0 76.5 -19.5t53 -53t19.5 -76.5v-2q0 -43 -19.5 -76.5t-53 -53t-76.5 -19.5h-288q-43 0 -76.5 19.5t-53 53t-19.5 76.5v2z" />
    <glyph glyph-name="macron" unicode="&#xaf;" horiz-adv-x="286" 
d="M-150 321q0 43 19.5 76.5t53 53t76.5 19.5h288q43 0 76.5 -19.5t53 -53t19.5 -76.5v-2q0 -43 -19.5 -76.5t-53 -53t-76.5 -19.5h-288q-43 0 -76.5 19.5t-53 53t-19.5 76.5v2z" />
    <glyph glyph-name="degree" unicode="&#xb0;" horiz-adv-x="286" 
d="M-150 321q0 43 19.5 76.5t53 53t76.5 19.5h288q43 0 76.5 -19.5t53 -53t19.5 -76.5v-2q0 -43 -19.5 -76.5t-53 -53t-76.5 -19.5h-288q-43 0 -76.5 19.5t-53 53t-19.5 76.5v2z" />
    <glyph glyph-name="plusminus" unicode="&#xb1;" horiz-adv-x="286" 
d="M-150 321q0 43 19.5 76.5t53 53t76.5 19.5h288q43 0 76.5 -19.5t53 -53t19.5 -76.5v-2q0 -43 -19.5 -76.5t-53 -53t-76.5 -19.5h-288q-43 0 -76.5 19.5t-53 53t-19.5 76.5v2z" />
    <glyph glyph-name="uni00B2" unicode="&#xb2;" 
d="M-150 321q0 43 19.5 76.5t53 53t76.5 19.5h564q43 0 76.5 -19.5t53 -53t19.5 -76.5v-2q0 -43 -19.5 -76.5t-53 -53t-76.5 -19.5h-564q-43 0 -76.5 19.5t-53 53t-19.5 76.5v2z" />
    <glyph glyph-name="uni00B3" unicode="&#xb3;" 
d="M-150 321q0 43 19.5 76.5t53 53t76.5 19.5h564q43 0 76.5 -19.5t53 -53t19.5 -76.5v-2q0 -43 -19.5 -76.5t-53 -53t-76.5 -19.5h-564q-43 0 -76.5 19.5t-53 53t-19.5 76.5v2z" />
    <glyph glyph-name="acute" unicode="&#xb4;" horiz-adv-x="286" 
d="M-150 321q0 43 19.5 76.5t53 53t76.5 19.5h288q43 0 76.5 -19.5t53 -53t19.5 -76.5v-2q0 -43 -19.5 -76.5t-53 -53t-76.5 -19.5h-288q-43 0 -76.5 19.5t-53 53t-19.5 76.5v2z" />
    <glyph glyph-name="uni00B5" unicode="&#xb5;" 
d="M-150 321q0 43 19.5 76.5t53 53t76.5 19.5h564q43 0 76.5 -19.5t53 -53t19.5 -76.5v-2q0 -43 -19.5 -76.5t-53 -53t-76.5 -19.5h-564q-43 0 -76.5 19.5t-53 53t-19.5 76.5v2z" />
    <glyph glyph-name="paragraph" unicode="&#xb6;" horiz-adv-x="286" 
d="M-150 321q0 43 19.5 76.5t53 53t76.5 19.5h288q43 0 76.5 -19.5t53 -53t19.5 -76.5v-2q0 -43 -19.5 -76.5t-53 -53t-76.5 -19.5h-288q-43 0 -76.5 19.5t-53 53t-19.5 76.5v2z" />
    <glyph glyph-name="periodcentered" unicode="&#xb7;" horiz-adv-x="286" 
d="M-150 321q0 43 19.5 76.5t53 53t76.5 19.5h288q43 0 76.5 -19.5t53 -53t19.5 -76.5v-2q0 -43 -19.5 -76.5t-53 -53t-76.5 -19.5h-288q-43 0 -76.5 19.5t-53 53t-19.5 76.5v2z" />
    <glyph glyph-name="cedilla" unicode="&#xb8;" horiz-adv-x="286" 
d="M-150 321q0 43 19.5 76.5t53 53t76.5 19.5h288q43 0 76.5 -19.5t53 -53t19.5 -76.5v-2q0 -43 -19.5 -76.5t-53 -53t-76.5 -19.5h-288q-43 0 -76.5 19.5t-53 53t-19.5 76.5v2z" />
    <glyph glyph-name="uni00B9" unicode="&#xb9;" 
d="M-150 321q0 43 19.5 76.5t53 53t76.5 19.5h564q43 0 76.5 -19.5t53 -53t19.5 -76.5v-2q0 -43 -19.5 -76.5t-53 -53t-76.5 -19.5h-564q-43 0 -76.5 19.5t-53 53t-19.5 76.5v2z" />
    <glyph glyph-name="ordmasculine" unicode="&#xba;" 
d="M-150 321q0 43 19.5 76.5t53 53t76.5 19.5h564q43 0 76.5 -19.5t53 -53t19.5 -76.5v-2q0 -43 -19.5 -76.5t-53 -53t-76.5 -19.5h-564q-43 0 -76.5 19.5t-53 53t-19.5 76.5v2z" />
    <glyph glyph-name="guillemotright" unicode="&#xbb;" horiz-adv-x="286" 
d="M-150 321q0 43 19.5 76.5t53 53t76.5 19.5h288q43 0 76.5 -19.5t53 -53t19.5 -76.5v-2q0 -43 -19.5 -76.5t-53 -53t-76.5 -19.5h-288q-43 0 -76.5 19.5t-53 53t-19.5 76.5v2z" />
    <glyph glyph-name="onequarter" unicode="&#xbc;" 
d="M-150 321q0 43 19.5 76.5t53 53t76.5 19.5h564q43 0 76.5 -19.5t53 -53t19.5 -76.5v-2q0 -43 -19.5 -76.5t-53 -53t-76.5 -19.5h-564q-43 0 -76.5 19.5t-53 53t-19.5 76.5v2z" />
    <glyph glyph-name="onehalf" unicode="&#xbd;" 
d="M-150 321q0 43 19.5 76.5t53 53t76.5 19.5h564q43 0 76.5 -19.5t53 -53t19.5 -76.5v-2q0 -43 -19.5 -76.5t-53 -53t-76.5 -19.5h-564q-43 0 -76.5 19.5t-53 53t-19.5 76.5v2z" />
    <glyph glyph-name="threequarters" unicode="&#xbe;" 
d="M-150 321q0 43 19.5 76.5t53 53t76.5 19.5h564q43 0 76.5 -19.5t53 -53t19.5 -76.5v-2q0 -43 -19.5 -76.5t-53 -53t-76.5 -19.5h-564q-43 0 -76.5 19.5t-53 53t-19.5 76.5v2z" />
    <glyph glyph-name="questiondown" unicode="&#xbf;" horiz-adv-x="286" 
d="M-150 321q0 43 19.5 76.5t53 53t76.5 19.5h288q43 0 76.5 -19.5t53 -53t19.5 -76.5v-2q0 -43 -19.5 -76.5t-53 -53t-76.5 -19.5h-288q-43 0 -76.5 19.5t-53 53t-19.5 76.5v2z" />
    <glyph glyph-name="Agrave" unicode="&#xc0;" 
d="M-150 321q0 43 19.5 76.5t53 53t76.5 19.5h564q43 0 76.5 -19.5t53 -53t19.5 -76.5v-2q0 -43 -19.5 -76.5t-53 -53t-76.5 -19.5h-564q-43 0 -76.5 19.5t-53 53t-19.5 76.5v2z" />
    <glyph glyph-name="Aacute" unicode="&#xc1;" 
d="M-150 321q0 43 19.5 76.5t53 53t76.5 19.5h564q43 0 76.5 -19.5t53 -53t19.5 -76.5v-2q0 -43 -19.5 -76.5t-53 -53t-76.5 -19.5h-564q-43 0 -76.5 19.5t-53 53t-19.5 76.5v2z" />
    <glyph glyph-name="Acircumflex" unicode="&#xc2;" 
d="M-150 321q0 43 19.5 76.5t53 53t76.5 19.5h564q43 0 76.5 -19.5t53 -53t19.5 -76.5v-2q0 -43 -19.5 -76.5t-53 -53t-76.5 -19.5h-564q-43 0 -76.5 19.5t-53 53t-19.5 76.5v2z" />
    <glyph glyph-name="Atilde" unicode="&#xc3;" 
d="M-150 321q0 43 19.5 76.5t53 53t76.5 19.5h564q43 0 76.5 -19.5t53 -53t19.5 -76.5v-2q0 -43 -19.5 -76.5t-53 -53t-76.5 -19.5h-564q-43 0 -76.5 19.5t-53 53t-19.5 76.5v2z" />
    <glyph glyph-name="Adieresis" unicode="&#xc4;" 
d="M-150 321q0 43 19.5 76.5t53 53t76.5 19.5h564q43 0 76.5 -19.5t53 -53t19.5 -76.5v-2q0 -43 -19.5 -76.5t-53 -53t-76.5 -19.5h-564q-43 0 -76.5 19.5t-53 53t-19.5 76.5v2z" />
    <glyph glyph-name="Aring" unicode="&#xc5;" 
d="M-150 321q0 43 19.5 76.5t53 53t76.5 19.5h564q43 0 76.5 -19.5t53 -53t19.5 -76.5v-2q0 -43 -19.5 -76.5t-53 -53t-76.5 -19.5h-564q-43 0 -76.5 19.5t-53 53t-19.5 76.5v2z" />
    <glyph glyph-name="AE" unicode="&#xc6;" 
d="M-150 321q0 43 19.5 76.5t53 53t76.5 19.5h564q43 0 76.5 -19.5t53 -53t19.5 -76.5v-2q0 -43 -19.5 -76.5t-53 -53t-76.5 -19.5h-564q-43 0 -76.5 19.5t-53 53t-19.5 76.5v2z" />
    <glyph glyph-name="Ccedilla" unicode="&#xc7;" 
d="M-150 321q0 43 19.5 76.5t53 53t76.5 19.5h564q43 0 76.5 -19.5t53 -53t19.5 -76.5v-2q0 -43 -19.5 -76.5t-53 -53t-76.5 -19.5h-564q-43 0 -76.5 19.5t-53 53t-19.5 76.5v2z" />
    <glyph glyph-name="Egrave" unicode="&#xc8;" 
d="M-150 321q0 43 19.5 76.5t53 53t76.5 19.5h564q43 0 76.5 -19.5t53 -53t19.5 -76.5v-2q0 -43 -19.5 -76.5t-53 -53t-76.5 -19.5h-564q-43 0 -76.5 19.5t-53 53t-19.5 76.5v2z" />
    <glyph glyph-name="Eacute" unicode="&#xc9;" 
d="M-150 321q0 43 19.5 76.5t53 53t76.5 19.5h564q43 0 76.5 -19.5t53 -53t19.5 -76.5v-2q0 -43 -19.5 -76.5t-53 -53t-76.5 -19.5h-564q-43 0 -76.5 19.5t-53 53t-19.5 76.5v2z" />
    <glyph glyph-name="Ecircumflex" unicode="&#xca;" 
d="M-150 321q0 43 19.5 76.5t53 53t76.5 19.5h564q43 0 76.5 -19.5t53 -53t19.5 -76.5v-2q0 -43 -19.5 -76.5t-53 -53t-76.5 -19.5h-564q-43 0 -76.5 19.5t-53 53t-19.5 76.5v2z" />
    <glyph glyph-name="Edieresis" unicode="&#xcb;" 
d="M-150 321q0 43 19.5 76.5t53 53t76.5 19.5h564q43 0 76.5 -19.5t53 -53t19.5 -76.5v-2q0 -43 -19.5 -76.5t-53 -53t-76.5 -19.5h-564q-43 0 -76.5 19.5t-53 53t-19.5 76.5v2z" />
    <glyph glyph-name="Igrave" unicode="&#xcc;" horiz-adv-x="286" 
d="M-150 321q0 43 19.5 76.5t53 53t76.5 19.5h288q43 0 76.5 -19.5t53 -53t19.5 -76.5v-2q0 -43 -19.5 -76.5t-53 -53t-76.5 -19.5h-288q-43 0 -76.5 19.5t-53 53t-19.5 76.5v2z" />
    <glyph glyph-name="Iacute" unicode="&#xcd;" horiz-adv-x="286" 
d="M-150 321q0 43 19.5 76.5t53 53t76.5 19.5h288q43 0 76.5 -19.5t53 -53t19.5 -76.5v-2q0 -43 -19.5 -76.5t-53 -53t-76.5 -19.5h-288q-43 0 -76.5 19.5t-53 53t-19.5 76.5v2z" />
    <glyph glyph-name="Icircumflex" unicode="&#xce;" horiz-adv-x="286" 
d="M-150 321q0 43 19.5 76.5t53 53t76.5 19.5h288q43 0 76.5 -19.5t53 -53t19.5 -76.5v-2q0 -43 -19.5 -76.5t-53 -53t-76.5 -19.5h-288q-43 0 -76.5 19.5t-53 53t-19.5 76.5v2z" />
    <glyph glyph-name="Idieresis" unicode="&#xcf;" horiz-adv-x="286" 
d="M-150 321q0 43 19.5 76.5t53 53t76.5 19.5h288q43 0 76.5 -19.5t53 -53t19.5 -76.5v-2q0 -43 -19.5 -76.5t-53 -53t-76.5 -19.5h-288q-43 0 -76.5 19.5t-53 53t-19.5 76.5v2z" />
    <glyph glyph-name="Eth" unicode="&#xd0;" 
d="M-150 321q0 43 19.5 76.5t53 53t76.5 19.5h564q43 0 76.5 -19.5t53 -53t19.5 -76.5v-2q0 -43 -19.5 -76.5t-53 -53t-76.5 -19.5h-564q-43 0 -76.5 19.5t-53 53t-19.5 76.5v2z" />
    <glyph glyph-name="Ntilde" unicode="&#xd1;" 
d="M-150 321q0 43 19.5 76.5t53 53t76.5 19.5h564q43 0 76.5 -19.5t53 -53t19.5 -76.5v-2q0 -43 -19.5 -76.5t-53 -53t-76.5 -19.5h-564q-43 0 -76.5 19.5t-53 53t-19.5 76.5v2z" />
    <glyph glyph-name="Ograve" unicode="&#xd2;" 
d="M-150 321q0 43 19.5 76.5t53 53t76.5 19.5h564q43 0 76.5 -19.5t53 -53t19.5 -76.5v-2q0 -43 -19.5 -76.5t-53 -53t-76.5 -19.5h-564q-43 0 -76.5 19.5t-53 53t-19.5 76.5v2z" />
    <glyph glyph-name="Oacute" unicode="&#xd3;" 
d="M-150 321q0 43 19.5 76.5t53 53t76.5 19.5h564q43 0 76.5 -19.5t53 -53t19.5 -76.5v-2q0 -43 -19.5 -76.5t-53 -53t-76.5 -19.5h-564q-43 0 -76.5 19.5t-53 53t-19.5 76.5v2z" />
    <glyph glyph-name="Ocircumflex" unicode="&#xd4;" 
d="M-150 321q0 43 19.5 76.5t53 53t76.5 19.5h564q43 0 76.5 -19.5t53 -53t19.5 -76.5v-2q0 -43 -19.5 -76.5t-53 -53t-76.5 -19.5h-564q-43 0 -76.5 19.5t-53 53t-19.5 76.5v2z" />
    <glyph glyph-name="Otilde" unicode="&#xd5;" 
d="M-150 321q0 43 19.5 76.5t53 53t76.5 19.5h564q43 0 76.5 -19.5t53 -53t19.5 -76.5v-2q0 -43 -19.5 -76.5t-53 -53t-76.5 -19.5h-564q-43 0 -76.5 19.5t-53 53t-19.5 76.5v2z" />
    <glyph glyph-name="Odieresis" unicode="&#xd6;" 
d="M-150 321q0 43 19.5 76.5t53 53t76.5 19.5h564q43 0 76.5 -19.5t53 -53t19.5 -76.5v-2q0 -43 -19.5 -76.5t-53 -53t-76.5 -19.5h-564q-43 0 -76.5 19.5t-53 53t-19.5 76.5v2z" />
    <glyph glyph-name="multiply" unicode="&#xd7;" horiz-adv-x="286" 
d="M-150 321q0 43 19.5 76.5t53 53t76.5 19.5h288q43 0 76.5 -19.5t53 -53t19.5 -76.5v-2q0 -43 -19.5 -76.5t-53 -53t-76.5 -19.5h-288q-43 0 -76.5 19.5t-53 53t-19.5 76.5v2z" />
    <glyph glyph-name="Oslash" unicode="&#xd8;" 
d="M-150 321q0 43 19.5 76.5t53 53t76.5 19.5h564q43 0 76.5 -19.5t53 -53t19.5 -76.5v-2q0 -43 -19.5 -76.5t-53 -53t-76.5 -19.5h-564q-43 0 -76.5 19.5t-53 53t-19.5 76.5v2z" />
    <glyph glyph-name="Ugrave" unicode="&#xd9;" 
d="M-150 321q0 43 19.5 76.5t53 53t76.5 19.5h564q43 0 76.5 -19.5t53 -53t19.5 -76.5v-2q0 -43 -19.5 -76.5t-53 -53t-76.5 -19.5h-564q-43 0 -76.5 19.5t-53 53t-19.5 76.5v2z" />
    <glyph glyph-name="Uacute" unicode="&#xda;" 
d="M-150 321q0 43 19.5 76.5t53 53t76.5 19.5h564q43 0 76.5 -19.5t53 -53t19.5 -76.5v-2q0 -43 -19.5 -76.5t-53 -53t-76.5 -19.5h-564q-43 0 -76.5 19.5t-53 53t-19.5 76.5v2z" />
    <glyph glyph-name="Ucircumflex" unicode="&#xdb;" 
d="M-150 321q0 43 19.5 76.5t53 53t76.5 19.5h564q43 0 76.5 -19.5t53 -53t19.5 -76.5v-2q0 -43 -19.5 -76.5t-53 -53t-76.5 -19.5h-564q-43 0 -76.5 19.5t-53 53t-19.5 76.5v2z" />
    <glyph glyph-name="Udieresis" unicode="&#xdc;" 
d="M-150 321q0 43 19.5 76.5t53 53t76.5 19.5h564q43 0 76.5 -19.5t53 -53t19.5 -76.5v-2q0 -43 -19.5 -76.5t-53 -53t-76.5 -19.5h-564q-43 0 -76.5 19.5t-53 53t-19.5 76.5v2z" />
    <glyph glyph-name="Yacute" unicode="&#xdd;" 
d="M-150 321q0 43 19.5 76.5t53 53t76.5 19.5h564q43 0 76.5 -19.5t53 -53t19.5 -76.5v-2q0 -43 -19.5 -76.5t-53 -53t-76.5 -19.5h-564q-43 0 -76.5 19.5t-53 53t-19.5 76.5v2z" />
    <glyph glyph-name="Thorn" unicode="&#xde;" 
d="M-150 321q0 43 19.5 76.5t53 53t76.5 19.5h564q43 0 76.5 -19.5t53 -53t19.5 -76.5v-2q0 -43 -19.5 -76.5t-53 -53t-76.5 -19.5h-564q-43 0 -76.5 19.5t-53 53t-19.5 76.5v2z" />
    <glyph glyph-name="germandbls" unicode="&#xdf;" 
d="M-150 321q0 43 19.5 76.5t53 53t76.5 19.5h564q43 0 76.5 -19.5t53 -53t19.5 -76.5v-2q0 -43 -19.5 -76.5t-53 -53t-76.5 -19.5h-564q-43 0 -76.5 19.5t-53 53t-19.5 76.5v2z" />
    <glyph glyph-name="agrave" unicode="&#xe0;" 
d="M-150 321q0 43 19.5 76.5t53 53t76.5 19.5h564q43 0 76.5 -19.5t53 -53t19.5 -76.5v-2q0 -43 -19.5 -76.5t-53 -53t-76.5 -19.5h-564q-43 0 -76.5 19.5t-53 53t-19.5 76.5v2z" />
    <glyph glyph-name="aacute" unicode="&#xe1;" 
d="M-150 321q0 43 19.5 76.5t53 53t76.5 19.5h564q43 0 76.5 -19.5t53 -53t19.5 -76.5v-2q0 -43 -19.5 -76.5t-53 -53t-76.5 -19.5h-564q-43 0 -76.5 19.5t-53 53t-19.5 76.5v2z" />
    <glyph glyph-name="acircumflex" unicode="&#xe2;" 
d="M-150 321q0 43 19.5 76.5t53 53t76.5 19.5h564q43 0 76.5 -19.5t53 -53t19.5 -76.5v-2q0 -43 -19.5 -76.5t-53 -53t-76.5 -19.5h-564q-43 0 -76.5 19.5t-53 53t-19.5 76.5v2z" />
    <glyph glyph-name="atilde" unicode="&#xe3;" 
d="M-150 321q0 43 19.5 76.5t53 53t76.5 19.5h564q43 0 76.5 -19.5t53 -53t19.5 -76.5v-2q0 -43 -19.5 -76.5t-53 -53t-76.5 -19.5h-564q-43 0 -76.5 19.5t-53 53t-19.5 76.5v2z" />
    <glyph glyph-name="adieresis" unicode="&#xe4;" 
d="M-150 321q0 43 19.5 76.5t53 53t76.5 19.5h564q43 0 76.5 -19.5t53 -53t19.5 -76.5v-2q0 -43 -19.5 -76.5t-53 -53t-76.5 -19.5h-564q-43 0 -76.5 19.5t-53 53t-19.5 76.5v2z" />
    <glyph glyph-name="aring" unicode="&#xe5;" 
d="M-150 321q0 43 19.5 76.5t53 53t76.5 19.5h564q43 0 76.5 -19.5t53 -53t19.5 -76.5v-2q0 -43 -19.5 -76.5t-53 -53t-76.5 -19.5h-564q-43 0 -76.5 19.5t-53 53t-19.5 76.5v2z" />
    <glyph glyph-name="ae" unicode="&#xe6;" 
d="M-150 321q0 43 19.5 76.5t53 53t76.5 19.5h564q43 0 76.5 -19.5t53 -53t19.5 -76.5v-2q0 -43 -19.5 -76.5t-53 -53t-76.5 -19.5h-564q-43 0 -76.5 19.5t-53 53t-19.5 76.5v2z" />
    <glyph glyph-name="ccedilla" unicode="&#xe7;" 
d="M-150 321q0 43 19.5 76.5t53 53t76.5 19.5h564q43 0 76.5 -19.5t53 -53t19.5 -76.5v-2q0 -43 -19.5 -76.5t-53 -53t-76.5 -19.5h-564q-43 0 -76.5 19.5t-53 53t-19.5 76.5v2z" />
    <glyph glyph-name="egrave" unicode="&#xe8;" 
d="M-150 321q0 43 19.5 76.5t53 53t76.5 19.5h564q43 0 76.5 -19.5t53 -53t19.5 -76.5v-2q0 -43 -19.5 -76.5t-53 -53t-76.5 -19.5h-564q-43 0 -76.5 19.5t-53 53t-19.5 76.5v2z" />
    <glyph glyph-name="eacute" unicode="&#xe9;" 
d="M-150 321q0 43 19.5 76.5t53 53t76.5 19.5h564q43 0 76.5 -19.5t53 -53t19.5 -76.5v-2q0 -43 -19.5 -76.5t-53 -53t-76.5 -19.5h-564q-43 0 -76.5 19.5t-53 53t-19.5 76.5v2z" />
    <glyph glyph-name="ecircumflex" unicode="&#xea;" 
d="M-150 321q0 43 19.5 76.5t53 53t76.5 19.5h564q43 0 76.5 -19.5t53 -53t19.5 -76.5v-2q0 -43 -19.5 -76.5t-53 -53t-76.5 -19.5h-564q-43 0 -76.5 19.5t-53 53t-19.5 76.5v2z" />
    <glyph glyph-name="edieresis" unicode="&#xeb;" 
d="M-150 321q0 43 19.5 76.5t53 53t76.5 19.5h564q43 0 76.5 -19.5t53 -53t19.5 -76.5v-2q0 -43 -19.5 -76.5t-53 -53t-76.5 -19.5h-564q-43 0 -76.5 19.5t-53 53t-19.5 76.5v2z" />
    <glyph glyph-name="igrave" unicode="&#xec;" horiz-adv-x="286" 
d="M-150 321q0 43 19.5 76.5t53 53t76.5 19.5h288q43 0 76.5 -19.5t53 -53t19.5 -76.5v-2q0 -43 -19.5 -76.5t-53 -53t-76.5 -19.5h-288q-43 0 -76.5 19.5t-53 53t-19.5 76.5v2z" />
    <glyph glyph-name="iacute" unicode="&#xed;" horiz-adv-x="286" 
d="M-150 321q0 43 19.5 76.5t53 53t76.5 19.5h288q43 0 76.5 -19.5t53 -53t19.5 -76.5v-2q0 -43 -19.5 -76.5t-53 -53t-76.5 -19.5h-288q-43 0 -76.5 19.5t-53 53t-19.5 76.5v2z" />
    <glyph glyph-name="icircumflex" unicode="&#xee;" horiz-adv-x="286" 
d="M-150 321q0 43 19.5 76.5t53 53t76.5 19.5h288q43 0 76.5 -19.5t53 -53t19.5 -76.5v-2q0 -43 -19.5 -76.5t-53 -53t-76.5 -19.5h-288q-43 0 -76.5 19.5t-53 53t-19.5 76.5v2z" />
    <glyph glyph-name="idieresis" unicode="&#xef;" horiz-adv-x="286" 
d="M-150 321q0 43 19.5 76.5t53 53t76.5 19.5h288q43 0 76.5 -19.5t53 -53t19.5 -76.5v-2q0 -43 -19.5 -76.5t-53 -53t-76.5 -19.5h-288q-43 0 -76.5 19.5t-53 53t-19.5 76.5v2z" />
    <glyph glyph-name="eth" unicode="&#xf0;" 
d="M-150 321q0 43 19.5 76.5t53 53t76.5 19.5h564q43 0 76.5 -19.5t53 -53t19.5 -76.5v-2q0 -43 -19.5 -76.5t-53 -53t-76.5 -19.5h-564q-43 0 -76.5 19.5t-53 53t-19.5 76.5v2z" />
    <glyph glyph-name="ntilde" unicode="&#xf1;" 
d="M-150 321q0 43 19.5 76.5t53 53t76.5 19.5h564q43 0 76.5 -19.5t53 -53t19.5 -76.5v-2q0 -43 -19.5 -76.5t-53 -53t-76.5 -19.5h-564q-43 0 -76.5 19.5t-53 53t-19.5 76.5v2z" />
    <glyph glyph-name="ograve" unicode="&#xf2;" 
d="M-150 321q0 43 19.5 76.5t53 53t76.5 19.5h564q43 0 76.5 -19.5t53 -53t19.5 -76.5v-2q0 -43 -19.5 -76.5t-53 -53t-76.5 -19.5h-564q-43 0 -76.5 19.5t-53 53t-19.5 76.5v2z" />
    <glyph glyph-name="oacute" unicode="&#xf3;" 
d="M-150 321q0 43 19.5 76.5t53 53t76.5 19.5h564q43 0 76.5 -19.5t53 -53t19.5 -76.5v-2q0 -43 -19.5 -76.5t-53 -53t-76.5 -19.5h-564q-43 0 -76.5 19.5t-53 53t-19.5 76.5v2z" />
    <glyph glyph-name="ocircumflex" unicode="&#xf4;" 
d="M-150 321q0 43 19.5 76.5t53 53t76.5 19.5h564q43 0 76.5 -19.5t53 -53t19.5 -76.5v-2q0 -43 -19.5 -76.5t-53 -53t-76.5 -19.5h-564q-43 0 -76.5 19.5t-53 53t-19.5 76.5v2z" />
    <glyph glyph-name="otilde" unicode="&#xf5;" 
d="M-150 321q0 43 19.5 76.5t53 53t76.5 19.5h564q43 0 76.5 -19.5t53 -53t19.5 -76.5v-2q0 -43 -19.5 -76.5t-53 -53t-76.5 -19.5h-564q-43 0 -76.5 19.5t-53 53t-19.5 76.5v2z" />
    <glyph glyph-name="odieresis" unicode="&#xf6;" 
d="M-150 321q0 43 19.5 76.5t53 53t76.5 19.5h564q43 0 76.5 -19.5t53 -53t19.5 -76.5v-2q0 -43 -19.5 -76.5t-53 -53t-76.5 -19.5h-564q-43 0 -76.5 19.5t-53 53t-19.5 76.5v2z" />
    <glyph glyph-name="divide" unicode="&#xf7;" horiz-adv-x="286" 
d="M-150 321q0 43 19.5 76.5t53 53t76.5 19.5h288q43 0 76.5 -19.5t53 -53t19.5 -76.5v-2q0 -43 -19.5 -76.5t-53 -53t-76.5 -19.5h-288q-43 0 -76.5 19.5t-53 53t-19.5 76.5v2z" />
    <glyph glyph-name="oslash" unicode="&#xf8;" 
d="M-150 321q0 43 19.5 76.5t53 53t76.5 19.5h564q43 0 76.5 -19.5t53 -53t19.5 -76.5v-2q0 -43 -19.5 -76.5t-53 -53t-76.5 -19.5h-564q-43 0 -76.5 19.5t-53 53t-19.5 76.5v2z" />
    <glyph glyph-name="ugrave" unicode="&#xf9;" 
d="M-150 321q0 43 19.5 76.5t53 53t76.5 19.5h564q43 0 76.5 -19.5t53 -53t19.5 -76.5v-2q0 -43 -19.5 -76.5t-53 -53t-76.5 -19.5h-564q-43 0 -76.5 19.5t-53 53t-19.5 76.5v2z" />
    <glyph glyph-name="uacute" unicode="&#xfa;" 
d="M-150 321q0 43 19.5 76.5t53 53t76.5 19.5h564q43 0 76.5 -19.5t53 -53t19.5 -76.5v-2q0 -43 -19.5 -76.5t-53 -53t-76.5 -19.5h-564q-43 0 -76.5 19.5t-53 53t-19.5 76.5v2z" />
    <glyph glyph-name="ucircumflex" unicode="&#xfb;" 
d="M-150 321q0 43 19.5 76.5t53 53t76.5 19.5h564q43 0 76.5 -19.5t53 -53t19.5 -76.5v-2q0 -43 -19.5 -76.5t-53 -53t-76.5 -19.5h-564q-43 0 -76.5 19.5t-53 53t-19.5 76.5v2z" />
    <glyph glyph-name="udieresis" unicode="&#xfc;" 
d="M-150 321q0 43 19.5 76.5t53 53t76.5 19.5h564q43 0 76.5 -19.5t53 -53t19.5 -76.5v-2q0 -43 -19.5 -76.5t-53 -53t-76.5 -19.5h-564q-43 0 -76.5 19.5t-53 53t-19.5 76.5v2z" />
    <glyph glyph-name="yacute" unicode="&#xfd;" 
d="M-150 321q0 43 19.5 76.5t53 53t76.5 19.5h564q43 0 76.5 -19.5t53 -53t19.5 -76.5v-2q0 -43 -19.5 -76.5t-53 -53t-76.5 -19.5h-564q-43 0 -76.5 19.5t-53 53t-19.5 76.5v2z" />
    <glyph glyph-name="thorn" unicode="&#xfe;" 
d="M-150 321q0 43 19.5 76.5t53 53t76.5 19.5h564q43 0 76.5 -19.5t53 -53t19.5 -76.5v-2q0 -43 -19.5 -76.5t-53 -53t-76.5 -19.5h-564q-43 0 -76.5 19.5t-53 53t-19.5 76.5v2z" />
    <glyph glyph-name="ydieresis" unicode="&#xff;" 
d="M-150 321q0 43 19.5 76.5t53 53t76.5 19.5h564q43 0 76.5 -19.5t53 -53t19.5 -76.5v-2q0 -43 -19.5 -76.5t-53 -53t-76.5 -19.5h-564q-43 0 -76.5 19.5t-53 53t-19.5 76.5v2z" />
    <glyph glyph-name="Amacron" unicode="&#x100;" 
d="M-150 321q0 43 19.5 76.5t53 53t76.5 19.5h564q43 0 76.5 -19.5t53 -53t19.5 -76.5v-2q0 -43 -19.5 -76.5t-53 -53t-76.5 -19.5h-564q-43 0 -76.5 19.5t-53 53t-19.5 76.5v2z" />
    <glyph glyph-name="amacron" unicode="&#x101;" 
d="M-150 321q0 43 19.5 76.5t53 53t76.5 19.5h564q43 0 76.5 -19.5t53 -53t19.5 -76.5v-2q0 -43 -19.5 -76.5t-53 -53t-76.5 -19.5h-564q-43 0 -76.5 19.5t-53 53t-19.5 76.5v2z" />
    <glyph glyph-name="Abreve" unicode="&#x102;" 
d="M-150 321q0 43 19.5 76.5t53 53t76.5 19.5h564q43 0 76.5 -19.5t53 -53t19.5 -76.5v-2q0 -43 -19.5 -76.5t-53 -53t-76.5 -19.5h-564q-43 0 -76.5 19.5t-53 53t-19.5 76.5v2z" />
    <glyph glyph-name="abreve" unicode="&#x103;" 
d="M-150 321q0 43 19.5 76.5t53 53t76.5 19.5h564q43 0 76.5 -19.5t53 -53t19.5 -76.5v-2q0 -43 -19.5 -76.5t-53 -53t-76.5 -19.5h-564q-43 0 -76.5 19.5t-53 53t-19.5 76.5v2z" />
    <glyph glyph-name="Aogonek" unicode="&#x104;" 
d="M-150 321q0 43 19.5 76.5t53 53t76.5 19.5h564q43 0 76.5 -19.5t53 -53t19.5 -76.5v-2q0 -43 -19.5 -76.5t-53 -53t-76.5 -19.5h-564q-43 0 -76.5 19.5t-53 53t-19.5 76.5v2z" />
    <glyph glyph-name="aogonek" unicode="&#x105;" 
d="M-150 321q0 43 19.5 76.5t53 53t76.5 19.5h564q43 0 76.5 -19.5t53 -53t19.5 -76.5v-2q0 -43 -19.5 -76.5t-53 -53t-76.5 -19.5h-564q-43 0 -76.5 19.5t-53 53t-19.5 76.5v2z" />
    <glyph glyph-name="Cacute" unicode="&#x106;" 
d="M-150 321q0 43 19.5 76.5t53 53t76.5 19.5h564q43 0 76.5 -19.5t53 -53t19.5 -76.5v-2q0 -43 -19.5 -76.5t-53 -53t-76.5 -19.5h-564q-43 0 -76.5 19.5t-53 53t-19.5 76.5v2z" />
    <glyph glyph-name="cacute" unicode="&#x107;" 
d="M-150 321q0 43 19.5 76.5t53 53t76.5 19.5h564q43 0 76.5 -19.5t53 -53t19.5 -76.5v-2q0 -43 -19.5 -76.5t-53 -53t-76.5 -19.5h-564q-43 0 -76.5 19.5t-53 53t-19.5 76.5v2z" />
    <glyph glyph-name="Cdotaccent" unicode="&#x10a;" 
d="M-150 321q0 43 19.5 76.5t53 53t76.5 19.5h564q43 0 76.5 -19.5t53 -53t19.5 -76.5v-2q0 -43 -19.5 -76.5t-53 -53t-76.5 -19.5h-564q-43 0 -76.5 19.5t-53 53t-19.5 76.5v2z" />
    <glyph glyph-name="cdotaccent" unicode="&#x10b;" 
d="M-150 321q0 43 19.5 76.5t53 53t76.5 19.5h564q43 0 76.5 -19.5t53 -53t19.5 -76.5v-2q0 -43 -19.5 -76.5t-53 -53t-76.5 -19.5h-564q-43 0 -76.5 19.5t-53 53t-19.5 76.5v2z" />
    <glyph glyph-name="Ccaron" unicode="&#x10c;" 
d="M-150 321q0 43 19.5 76.5t53 53t76.5 19.5h564q43 0 76.5 -19.5t53 -53t19.5 -76.5v-2q0 -43 -19.5 -76.5t-53 -53t-76.5 -19.5h-564q-43 0 -76.5 19.5t-53 53t-19.5 76.5v2z" />
    <glyph glyph-name="ccaron" unicode="&#x10d;" 
d="M-150 321q0 43 19.5 76.5t53 53t76.5 19.5h564q43 0 76.5 -19.5t53 -53t19.5 -76.5v-2q0 -43 -19.5 -76.5t-53 -53t-76.5 -19.5h-564q-43 0 -76.5 19.5t-53 53t-19.5 76.5v2z" />
    <glyph glyph-name="Dcaron" unicode="&#x10e;" 
d="M-150 321q0 43 19.5 76.5t53 53t76.5 19.5h564q43 0 76.5 -19.5t53 -53t19.5 -76.5v-2q0 -43 -19.5 -76.5t-53 -53t-76.5 -19.5h-564q-43 0 -76.5 19.5t-53 53t-19.5 76.5v2z" />
    <glyph glyph-name="dcaron" unicode="&#x10f;" 
d="M-150 321q0 43 19.5 76.5t53 53t76.5 19.5h564q43 0 76.5 -19.5t53 -53t19.5 -76.5v-2q0 -43 -19.5 -76.5t-53 -53t-76.5 -19.5h-564q-43 0 -76.5 19.5t-53 53t-19.5 76.5v2z" />
    <glyph glyph-name="Dcroat" unicode="&#x110;" 
d="M-150 321q0 43 19.5 76.5t53 53t76.5 19.5h564q43 0 76.5 -19.5t53 -53t19.5 -76.5v-2q0 -43 -19.5 -76.5t-53 -53t-76.5 -19.5h-564q-43 0 -76.5 19.5t-53 53t-19.5 76.5v2z" />
    <glyph glyph-name="dcroat" unicode="&#x111;" 
d="M-150 321q0 43 19.5 76.5t53 53t76.5 19.5h564q43 0 76.5 -19.5t53 -53t19.5 -76.5v-2q0 -43 -19.5 -76.5t-53 -53t-76.5 -19.5h-564q-43 0 -76.5 19.5t-53 53t-19.5 76.5v2z" />
    <glyph glyph-name="Emacron" unicode="&#x112;" 
d="M-150 321q0 43 19.5 76.5t53 53t76.5 19.5h564q43 0 76.5 -19.5t53 -53t19.5 -76.5v-2q0 -43 -19.5 -76.5t-53 -53t-76.5 -19.5h-564q-43 0 -76.5 19.5t-53 53t-19.5 76.5v2z" />
    <glyph glyph-name="emacron" unicode="&#x113;" 
d="M-150 321q0 43 19.5 76.5t53 53t76.5 19.5h564q43 0 76.5 -19.5t53 -53t19.5 -76.5v-2q0 -43 -19.5 -76.5t-53 -53t-76.5 -19.5h-564q-43 0 -76.5 19.5t-53 53t-19.5 76.5v2z" />
    <glyph glyph-name="Edotaccent" unicode="&#x116;" 
d="M-150 321q0 43 19.5 76.5t53 53t76.5 19.5h564q43 0 76.5 -19.5t53 -53t19.5 -76.5v-2q0 -43 -19.5 -76.5t-53 -53t-76.5 -19.5h-564q-43 0 -76.5 19.5t-53 53t-19.5 76.5v2z" />
    <glyph glyph-name="edotaccent" unicode="&#x117;" 
d="M-150 321q0 43 19.5 76.5t53 53t76.5 19.5h564q43 0 76.5 -19.5t53 -53t19.5 -76.5v-2q0 -43 -19.5 -76.5t-53 -53t-76.5 -19.5h-564q-43 0 -76.5 19.5t-53 53t-19.5 76.5v2z" />
    <glyph glyph-name="Eogonek" unicode="&#x118;" 
d="M-150 321q0 43 19.5 76.5t53 53t76.5 19.5h564q43 0 76.5 -19.5t53 -53t19.5 -76.5v-2q0 -43 -19.5 -76.5t-53 -53t-76.5 -19.5h-564q-43 0 -76.5 19.5t-53 53t-19.5 76.5v2z" />
    <glyph glyph-name="eogonek" unicode="&#x119;" 
d="M-150 321q0 43 19.5 76.5t53 53t76.5 19.5h564q43 0 76.5 -19.5t53 -53t19.5 -76.5v-2q0 -43 -19.5 -76.5t-53 -53t-76.5 -19.5h-564q-43 0 -76.5 19.5t-53 53t-19.5 76.5v2z" />
    <glyph glyph-name="Ecaron" unicode="&#x11a;" 
d="M-150 321q0 43 19.5 76.5t53 53t76.5 19.5h564q43 0 76.5 -19.5t53 -53t19.5 -76.5v-2q0 -43 -19.5 -76.5t-53 -53t-76.5 -19.5h-564q-43 0 -76.5 19.5t-53 53t-19.5 76.5v2z" />
    <glyph glyph-name="ecaron" unicode="&#x11b;" 
d="M-150 321q0 43 19.5 76.5t53 53t76.5 19.5h564q43 0 76.5 -19.5t53 -53t19.5 -76.5v-2q0 -43 -19.5 -76.5t-53 -53t-76.5 -19.5h-564q-43 0 -76.5 19.5t-53 53t-19.5 76.5v2z" />
    <glyph glyph-name="Gbreve" unicode="&#x11e;" 
d="M-150 321q0 43 19.5 76.5t53 53t76.5 19.5h564q43 0 76.5 -19.5t53 -53t19.5 -76.5v-2q0 -43 -19.5 -76.5t-53 -53t-76.5 -19.5h-564q-43 0 -76.5 19.5t-53 53t-19.5 76.5v2z" />
    <glyph glyph-name="gbreve" unicode="&#x11f;" 
d="M-150 321q0 43 19.5 76.5t53 53t76.5 19.5h564q43 0 76.5 -19.5t53 -53t19.5 -76.5v-2q0 -43 -19.5 -76.5t-53 -53t-76.5 -19.5h-564q-43 0 -76.5 19.5t-53 53t-19.5 76.5v2z" />
    <glyph glyph-name="Gdotaccent" unicode="&#x120;" 
d="M-150 321q0 43 19.5 76.5t53 53t76.5 19.5h564q43 0 76.5 -19.5t53 -53t19.5 -76.5v-2q0 -43 -19.5 -76.5t-53 -53t-76.5 -19.5h-564q-43 0 -76.5 19.5t-53 53t-19.5 76.5v2z" />
    <glyph glyph-name="gdotaccent" unicode="&#x121;" 
d="M-150 321q0 43 19.5 76.5t53 53t76.5 19.5h564q43 0 76.5 -19.5t53 -53t19.5 -76.5v-2q0 -43 -19.5 -76.5t-53 -53t-76.5 -19.5h-564q-43 0 -76.5 19.5t-53 53t-19.5 76.5v2z" />
    <glyph glyph-name="uni0122" unicode="&#x122;" 
d="M-150 321q0 43 19.5 76.5t53 53t76.5 19.5h564q43 0 76.5 -19.5t53 -53t19.5 -76.5v-2q0 -43 -19.5 -76.5t-53 -53t-76.5 -19.5h-564q-43 0 -76.5 19.5t-53 53t-19.5 76.5v2z" />
    <glyph glyph-name="uni0123" unicode="&#x123;" 
d="M-150 321q0 43 19.5 76.5t53 53t76.5 19.5h564q43 0 76.5 -19.5t53 -53t19.5 -76.5v-2q0 -43 -19.5 -76.5t-53 -53t-76.5 -19.5h-564q-43 0 -76.5 19.5t-53 53t-19.5 76.5v2z" />
    <glyph glyph-name="Hbar" unicode="&#x126;" 
d="M-150 321q0 43 19.5 76.5t53 53t76.5 19.5h564q43 0 76.5 -19.5t53 -53t19.5 -76.5v-2q0 -43 -19.5 -76.5t-53 -53t-76.5 -19.5h-564q-43 0 -76.5 19.5t-53 53t-19.5 76.5v2z" />
    <glyph glyph-name="hbar" unicode="&#x127;" 
d="M-150 321q0 43 19.5 76.5t53 53t76.5 19.5h564q43 0 76.5 -19.5t53 -53t19.5 -76.5v-2q0 -43 -19.5 -76.5t-53 -53t-76.5 -19.5h-564q-43 0 -76.5 19.5t-53 53t-19.5 76.5v2z" />
    <glyph glyph-name="Itilde" unicode="&#x128;" horiz-adv-x="286" 
d="M-150 321q0 43 19.5 76.5t53 53t76.5 19.5h288q43 0 76.5 -19.5t53 -53t19.5 -76.5v-2q0 -43 -19.5 -76.5t-53 -53t-76.5 -19.5h-288q-43 0 -76.5 19.5t-53 53t-19.5 76.5v2z" />
    <glyph glyph-name="itilde" unicode="&#x129;" horiz-adv-x="286" 
d="M-150 321q0 43 19.5 76.5t53 53t76.5 19.5h288q43 0 76.5 -19.5t53 -53t19.5 -76.5v-2q0 -43 -19.5 -76.5t-53 -53t-76.5 -19.5h-288q-43 0 -76.5 19.5t-53 53t-19.5 76.5v2z" />
    <glyph glyph-name="Imacron" unicode="&#x12a;" horiz-adv-x="286" 
d="M-150 321q0 43 19.5 76.5t53 53t76.5 19.5h288q43 0 76.5 -19.5t53 -53t19.5 -76.5v-2q0 -43 -19.5 -76.5t-53 -53t-76.5 -19.5h-288q-43 0 -76.5 19.5t-53 53t-19.5 76.5v2z" />
    <glyph glyph-name="imacron" unicode="&#x12b;" horiz-adv-x="286" 
d="M-150 321q0 43 19.5 76.5t53 53t76.5 19.5h288q43 0 76.5 -19.5t53 -53t19.5 -76.5v-2q0 -43 -19.5 -76.5t-53 -53t-76.5 -19.5h-288q-43 0 -76.5 19.5t-53 53t-19.5 76.5v2z" />
    <glyph glyph-name="Iogonek" unicode="&#x12e;" horiz-adv-x="286" 
d="M-150 321q0 43 19.5 76.5t53 53t76.5 19.5h288q43 0 76.5 -19.5t53 -53t19.5 -76.5v-2q0 -43 -19.5 -76.5t-53 -53t-76.5 -19.5h-288q-43 0 -76.5 19.5t-53 53t-19.5 76.5v2z" />
    <glyph glyph-name="iogonek" unicode="&#x12f;" horiz-adv-x="286" 
d="M-150 321q0 43 19.5 76.5t53 53t76.5 19.5h288q43 0 76.5 -19.5t53 -53t19.5 -76.5v-2q0 -43 -19.5 -76.5t-53 -53t-76.5 -19.5h-288q-43 0 -76.5 19.5t-53 53t-19.5 76.5v2z" />
    <glyph glyph-name="Idotaccent" unicode="&#x130;" horiz-adv-x="286" 
d="M-150 321q0 43 19.5 76.5t53 53t76.5 19.5h288q43 0 76.5 -19.5t53 -53t19.5 -76.5v-2q0 -43 -19.5 -76.5t-53 -53t-76.5 -19.5h-288q-43 0 -76.5 19.5t-53 53t-19.5 76.5v2z" />
    <glyph glyph-name="dotlessi" unicode="&#x131;" horiz-adv-x="286" 
d="M-150 321q0 43 19.5 76.5t53 53t76.5 19.5h288q43 0 76.5 -19.5t53 -53t19.5 -76.5v-2q0 -43 -19.5 -76.5t-53 -53t-76.5 -19.5h-288q-43 0 -76.5 19.5t-53 53t-19.5 76.5v2z" />
    <glyph glyph-name="IJ" unicode="&#x132;" 
d="M-150 321q0 43 19.5 76.5t53 53t76.5 19.5h564q43 0 76.5 -19.5t53 -53t19.5 -76.5v-2q0 -43 -19.5 -76.5t-53 -53t-76.5 -19.5h-564q-43 0 -76.5 19.5t-53 53t-19.5 76.5v2z" />
    <glyph glyph-name="ij" unicode="&#x133;" horiz-adv-x="286" 
d="M-150 321q0 43 19.5 76.5t53 53t76.5 19.5h288q43 0 76.5 -19.5t53 -53t19.5 -76.5v-2q0 -43 -19.5 -76.5t-53 -53t-76.5 -19.5h-288q-43 0 -76.5 19.5t-53 53t-19.5 76.5v2z" />
    <glyph glyph-name="uni0136" unicode="&#x136;" 
d="M-150 321q0 43 19.5 76.5t53 53t76.5 19.5h564q43 0 76.5 -19.5t53 -53t19.5 -76.5v-2q0 -43 -19.5 -76.5t-53 -53t-76.5 -19.5h-564q-43 0 -76.5 19.5t-53 53t-19.5 76.5v2z" />
    <glyph glyph-name="uni0137" unicode="&#x137;" horiz-adv-x="286" 
d="M-150 321q0 43 19.5 76.5t53 53t76.5 19.5h288q43 0 76.5 -19.5t53 -53t19.5 -76.5v-2q0 -43 -19.5 -76.5t-53 -53t-76.5 -19.5h-288q-43 0 -76.5 19.5t-53 53t-19.5 76.5v2z" />
    <glyph glyph-name="Lacute" unicode="&#x139;" horiz-adv-x="286" 
d="M-150 321q0 43 19.5 76.5t53 53t76.5 19.5h288q43 0 76.5 -19.5t53 -53t19.5 -76.5v-2q0 -43 -19.5 -76.5t-53 -53t-76.5 -19.5h-288q-43 0 -76.5 19.5t-53 53t-19.5 76.5v2z" />
    <glyph glyph-name="lacute" unicode="&#x13a;" horiz-adv-x="286" 
d="M-150 321q0 43 19.5 76.5t53 53t76.5 19.5h288q43 0 76.5 -19.5t53 -53t19.5 -76.5v-2q0 -43 -19.5 -76.5t-53 -53t-76.5 -19.5h-288q-43 0 -76.5 19.5t-53 53t-19.5 76.5v2z" />
    <glyph glyph-name="uni013B" unicode="&#x13b;" horiz-adv-x="286" 
d="M-150 321q0 43 19.5 76.5t53 53t76.5 19.5h288q43 0 76.5 -19.5t53 -53t19.5 -76.5v-2q0 -43 -19.5 -76.5t-53 -53t-76.5 -19.5h-288q-43 0 -76.5 19.5t-53 53t-19.5 76.5v2z" />
    <glyph glyph-name="uni013C" unicode="&#x13c;" horiz-adv-x="286" 
d="M-150 321q0 43 19.5 76.5t53 53t76.5 19.5h288q43 0 76.5 -19.5t53 -53t19.5 -76.5v-2q0 -43 -19.5 -76.5t-53 -53t-76.5 -19.5h-288q-43 0 -76.5 19.5t-53 53t-19.5 76.5v2z" />
    <glyph glyph-name="Lcaron" unicode="&#x13d;" horiz-adv-x="286" 
d="M-150 321q0 43 19.5 76.5t53 53t76.5 19.5h288q43 0 76.5 -19.5t53 -53t19.5 -76.5v-2q0 -43 -19.5 -76.5t-53 -53t-76.5 -19.5h-288q-43 0 -76.5 19.5t-53 53t-19.5 76.5v2z" />
    <glyph glyph-name="lcaron" unicode="&#x13e;" horiz-adv-x="286" 
d="M-150 321q0 43 19.5 76.5t53 53t76.5 19.5h288q43 0 76.5 -19.5t53 -53t19.5 -76.5v-2q0 -43 -19.5 -76.5t-53 -53t-76.5 -19.5h-288q-43 0 -76.5 19.5t-53 53t-19.5 76.5v2z" />
    <glyph glyph-name="Ldot" unicode="&#x13f;" horiz-adv-x="286" 
d="M-150 321q0 43 19.5 76.5t53 53t76.5 19.5h288q43 0 76.5 -19.5t53 -53t19.5 -76.5v-2q0 -43 -19.5 -76.5t-53 -53t-76.5 -19.5h-288q-43 0 -76.5 19.5t-53 53t-19.5 76.5v2z" />
    <glyph glyph-name="ldot" unicode="&#x140;" horiz-adv-x="286" 
d="M-150 321q0 43 19.5 76.5t53 53t76.5 19.5h288q43 0 76.5 -19.5t53 -53t19.5 -76.5v-2q0 -43 -19.5 -76.5t-53 -53t-76.5 -19.5h-288q-43 0 -76.5 19.5t-53 53t-19.5 76.5v2z" />
    <glyph glyph-name="Lslash" unicode="&#x141;" horiz-adv-x="286" 
d="M-150 321q0 43 19.5 76.5t53 53t76.5 19.5h288q43 0 76.5 -19.5t53 -53t19.5 -76.5v-2q0 -43 -19.5 -76.5t-53 -53t-76.5 -19.5h-288q-43 0 -76.5 19.5t-53 53t-19.5 76.5v2z" />
    <glyph glyph-name="lslash" unicode="&#x142;" horiz-adv-x="286" 
d="M-150 321q0 43 19.5 76.5t53 53t76.5 19.5h288q43 0 76.5 -19.5t53 -53t19.5 -76.5v-2q0 -43 -19.5 -76.5t-53 -53t-76.5 -19.5h-288q-43 0 -76.5 19.5t-53 53t-19.5 76.5v2z" />
    <glyph glyph-name="Nacute" unicode="&#x143;" 
d="M-150 321q0 43 19.5 76.5t53 53t76.5 19.5h564q43 0 76.5 -19.5t53 -53t19.5 -76.5v-2q0 -43 -19.5 -76.5t-53 -53t-76.5 -19.5h-564q-43 0 -76.5 19.5t-53 53t-19.5 76.5v2z" />
    <glyph glyph-name="nacute" unicode="&#x144;" 
d="M-150 321q0 43 19.5 76.5t53 53t76.5 19.5h564q43 0 76.5 -19.5t53 -53t19.5 -76.5v-2q0 -43 -19.5 -76.5t-53 -53t-76.5 -19.5h-564q-43 0 -76.5 19.5t-53 53t-19.5 76.5v2z" />
    <glyph glyph-name="uni0145" unicode="&#x145;" 
d="M-150 321q0 43 19.5 76.5t53 53t76.5 19.5h564q43 0 76.5 -19.5t53 -53t19.5 -76.5v-2q0 -43 -19.5 -76.5t-53 -53t-76.5 -19.5h-564q-43 0 -76.5 19.5t-53 53t-19.5 76.5v2z" />
    <glyph glyph-name="uni0146" unicode="&#x146;" 
d="M-150 321q0 43 19.5 76.5t53 53t76.5 19.5h564q43 0 76.5 -19.5t53 -53t19.5 -76.5v-2q0 -43 -19.5 -76.5t-53 -53t-76.5 -19.5h-564q-43 0 -76.5 19.5t-53 53t-19.5 76.5v2z" />
    <glyph glyph-name="Ncaron" unicode="&#x147;" 
d="M-150 321q0 43 19.5 76.5t53 53t76.5 19.5h564q43 0 76.5 -19.5t53 -53t19.5 -76.5v-2q0 -43 -19.5 -76.5t-53 -53t-76.5 -19.5h-564q-43 0 -76.5 19.5t-53 53t-19.5 76.5v2z" />
    <glyph glyph-name="ncaron" unicode="&#x148;" 
d="M-150 321q0 43 19.5 76.5t53 53t76.5 19.5h564q43 0 76.5 -19.5t53 -53t19.5 -76.5v-2q0 -43 -19.5 -76.5t-53 -53t-76.5 -19.5h-564q-43 0 -76.5 19.5t-53 53t-19.5 76.5v2z" />
    <glyph glyph-name="Eng" unicode="&#x14a;" 
d="M-150 321q0 43 19.5 76.5t53 53t76.5 19.5h564q43 0 76.5 -19.5t53 -53t19.5 -76.5v-2q0 -43 -19.5 -76.5t-53 -53t-76.5 -19.5h-564q-43 0 -76.5 19.5t-53 53t-19.5 76.5v2z" />
    <glyph glyph-name="eng" unicode="&#x14b;" 
d="M-150 321q0 43 19.5 76.5t53 53t76.5 19.5h564q43 0 76.5 -19.5t53 -53t19.5 -76.5v-2q0 -43 -19.5 -76.5t-53 -53t-76.5 -19.5h-564q-43 0 -76.5 19.5t-53 53t-19.5 76.5v2z" />
    <glyph glyph-name="Omacron" unicode="&#x14c;" 
d="M-150 321q0 43 19.5 76.5t53 53t76.5 19.5h564q43 0 76.5 -19.5t53 -53t19.5 -76.5v-2q0 -43 -19.5 -76.5t-53 -53t-76.5 -19.5h-564q-43 0 -76.5 19.5t-53 53t-19.5 76.5v2z" />
    <glyph glyph-name="omacron" unicode="&#x14d;" 
d="M-150 321q0 43 19.5 76.5t53 53t76.5 19.5h564q43 0 76.5 -19.5t53 -53t19.5 -76.5v-2q0 -43 -19.5 -76.5t-53 -53t-76.5 -19.5h-564q-43 0 -76.5 19.5t-53 53t-19.5 76.5v2z" />
    <glyph glyph-name="Ohungarumlaut" unicode="&#x150;" 
d="M-150 321q0 43 19.5 76.5t53 53t76.5 19.5h564q43 0 76.5 -19.5t53 -53t19.5 -76.5v-2q0 -43 -19.5 -76.5t-53 -53t-76.5 -19.5h-564q-43 0 -76.5 19.5t-53 53t-19.5 76.5v2z" />
    <glyph glyph-name="ohungarumlaut" unicode="&#x151;" 
d="M-150 321q0 43 19.5 76.5t53 53t76.5 19.5h564q43 0 76.5 -19.5t53 -53t19.5 -76.5v-2q0 -43 -19.5 -76.5t-53 -53t-76.5 -19.5h-564q-43 0 -76.5 19.5t-53 53t-19.5 76.5v2z" />
    <glyph glyph-name="OE" unicode="&#x152;" 
d="M-150 321q0 43 19.5 76.5t53 53t76.5 19.5h564q43 0 76.5 -19.5t53 -53t19.5 -76.5v-2q0 -43 -19.5 -76.5t-53 -53t-76.5 -19.5h-564q-43 0 -76.5 19.5t-53 53t-19.5 76.5v2z" />
    <glyph glyph-name="oe" unicode="&#x153;" 
d="M-150 321q0 43 19.5 76.5t53 53t76.5 19.5h564q43 0 76.5 -19.5t53 -53t19.5 -76.5v-2q0 -43 -19.5 -76.5t-53 -53t-76.5 -19.5h-564q-43 0 -76.5 19.5t-53 53t-19.5 76.5v2z" />
    <glyph glyph-name="Racute" unicode="&#x154;" 
d="M-150 321q0 43 19.5 76.5t53 53t76.5 19.5h564q43 0 76.5 -19.5t53 -53t19.5 -76.5v-2q0 -43 -19.5 -76.5t-53 -53t-76.5 -19.5h-564q-43 0 -76.5 19.5t-53 53t-19.5 76.5v2z" />
    <glyph glyph-name="racute" unicode="&#x155;" horiz-adv-x="286" 
d="M-150 321q0 43 19.5 76.5t53 53t76.5 19.5h288q43 0 76.5 -19.5t53 -53t19.5 -76.5v-2q0 -43 -19.5 -76.5t-53 -53t-76.5 -19.5h-288q-43 0 -76.5 19.5t-53 53t-19.5 76.5v2z" />
    <glyph glyph-name="uni0156" unicode="&#x156;" 
d="M-150 321q0 43 19.5 76.5t53 53t76.5 19.5h564q43 0 76.5 -19.5t53 -53t19.5 -76.5v-2q0 -43 -19.5 -76.5t-53 -53t-76.5 -19.5h-564q-43 0 -76.5 19.5t-53 53t-19.5 76.5v2z" />
    <glyph glyph-name="uni0157" unicode="&#x157;" horiz-adv-x="286" 
d="M-150 321q0 43 19.5 76.5t53 53t76.5 19.5h288q43 0 76.5 -19.5t53 -53t19.5 -76.5v-2q0 -43 -19.5 -76.5t-53 -53t-76.5 -19.5h-288q-43 0 -76.5 19.5t-53 53t-19.5 76.5v2z" />
    <glyph glyph-name="Rcaron" unicode="&#x158;" 
d="M-150 321q0 43 19.5 76.5t53 53t76.5 19.5h564q43 0 76.5 -19.5t53 -53t19.5 -76.5v-2q0 -43 -19.5 -76.5t-53 -53t-76.5 -19.5h-564q-43 0 -76.5 19.5t-53 53t-19.5 76.5v2z" />
    <glyph glyph-name="rcaron" unicode="&#x159;" horiz-adv-x="286" 
d="M-150 321q0 43 19.5 76.5t53 53t76.5 19.5h288q43 0 76.5 -19.5t53 -53t19.5 -76.5v-2q0 -43 -19.5 -76.5t-53 -53t-76.5 -19.5h-288q-43 0 -76.5 19.5t-53 53t-19.5 76.5v2z" />
    <glyph glyph-name="Sacute" unicode="&#x15a;" 
d="M-150 321q0 43 19.5 76.5t53 53t76.5 19.5h564q43 0 76.5 -19.5t53 -53t19.5 -76.5v-2q0 -43 -19.5 -76.5t-53 -53t-76.5 -19.5h-564q-43 0 -76.5 19.5t-53 53t-19.5 76.5v2z" />
    <glyph glyph-name="sacute" unicode="&#x15b;" 
d="M-150 321q0 43 19.5 76.5t53 53t76.5 19.5h564q43 0 76.5 -19.5t53 -53t19.5 -76.5v-2q0 -43 -19.5 -76.5t-53 -53t-76.5 -19.5h-564q-43 0 -76.5 19.5t-53 53t-19.5 76.5v2z" />
    <glyph glyph-name="Scedilla" unicode="&#x15e;" 
d="M-150 321q0 43 19.5 76.5t53 53t76.5 19.5h564q43 0 76.5 -19.5t53 -53t19.5 -76.5v-2q0 -43 -19.5 -76.5t-53 -53t-76.5 -19.5h-564q-43 0 -76.5 19.5t-53 53t-19.5 76.5v2z" />
    <glyph glyph-name="scedilla" unicode="&#x15f;" 
d="M-150 321q0 43 19.5 76.5t53 53t76.5 19.5h564q43 0 76.5 -19.5t53 -53t19.5 -76.5v-2q0 -43 -19.5 -76.5t-53 -53t-76.5 -19.5h-564q-43 0 -76.5 19.5t-53 53t-19.5 76.5v2z" />
    <glyph glyph-name="Scaron" unicode="&#x160;" 
d="M-150 321q0 43 19.5 76.5t53 53t76.5 19.5h564q43 0 76.5 -19.5t53 -53t19.5 -76.5v-2q0 -43 -19.5 -76.5t-53 -53t-76.5 -19.5h-564q-43 0 -76.5 19.5t-53 53t-19.5 76.5v2z" />
    <glyph glyph-name="scaron" unicode="&#x161;" 
d="M-150 321q0 43 19.5 76.5t53 53t76.5 19.5h564q43 0 76.5 -19.5t53 -53t19.5 -76.5v-2q0 -43 -19.5 -76.5t-53 -53t-76.5 -19.5h-564q-43 0 -76.5 19.5t-53 53t-19.5 76.5v2z" />
    <glyph glyph-name="uni0162" unicode="&#x162;" horiz-adv-x="286" 
d="M-150 321q0 43 19.5 76.5t53 53t76.5 19.5h288q43 0 76.5 -19.5t53 -53t19.5 -76.5v-2q0 -43 -19.5 -76.5t-53 -53t-76.5 -19.5h-288q-43 0 -76.5 19.5t-53 53t-19.5 76.5v2z" />
    <glyph glyph-name="uni0163" unicode="&#x163;" horiz-adv-x="286" 
d="M-150 321q0 43 19.5 76.5t53 53t76.5 19.5h288q43 0 76.5 -19.5t53 -53t19.5 -76.5v-2q0 -43 -19.5 -76.5t-53 -53t-76.5 -19.5h-288q-43 0 -76.5 19.5t-53 53t-19.5 76.5v2z" />
    <glyph glyph-name="Tcaron" unicode="&#x164;" horiz-adv-x="286" 
d="M-150 321q0 43 19.5 76.5t53 53t76.5 19.5h288q43 0 76.5 -19.5t53 -53t19.5 -76.5v-2q0 -43 -19.5 -76.5t-53 -53t-76.5 -19.5h-288q-43 0 -76.5 19.5t-53 53t-19.5 76.5v2z" />
    <glyph glyph-name="tcaron" unicode="&#x165;" horiz-adv-x="286" 
d="M-150 321q0 43 19.5 76.5t53 53t76.5 19.5h288q43 0 76.5 -19.5t53 -53t19.5 -76.5v-2q0 -43 -19.5 -76.5t-53 -53t-76.5 -19.5h-288q-43 0 -76.5 19.5t-53 53t-19.5 76.5v2z" />
    <glyph glyph-name="Tbar" unicode="&#x166;" horiz-adv-x="286" 
d="M-150 321q0 43 19.5 76.5t53 53t76.5 19.5h288q43 0 76.5 -19.5t53 -53t19.5 -76.5v-2q0 -43 -19.5 -76.5t-53 -53t-76.5 -19.5h-288q-43 0 -76.5 19.5t-53 53t-19.5 76.5v2z" />
    <glyph glyph-name="tbar" unicode="&#x167;" horiz-adv-x="286" 
d="M-150 321q0 43 19.5 76.5t53 53t76.5 19.5h288q43 0 76.5 -19.5t53 -53t19.5 -76.5v-2q0 -43 -19.5 -76.5t-53 -53t-76.5 -19.5h-288q-43 0 -76.5 19.5t-53 53t-19.5 76.5v2z" />
    <glyph glyph-name="Utilde" unicode="&#x168;" 
d="M-150 321q0 43 19.5 76.5t53 53t76.5 19.5h564q43 0 76.5 -19.5t53 -53t19.5 -76.5v-2q0 -43 -19.5 -76.5t-53 -53t-76.5 -19.5h-564q-43 0 -76.5 19.5t-53 53t-19.5 76.5v2z" />
    <glyph glyph-name="utilde" unicode="&#x169;" 
d="M-150 321q0 43 19.5 76.5t53 53t76.5 19.5h564q43 0 76.5 -19.5t53 -53t19.5 -76.5v-2q0 -43 -19.5 -76.5t-53 -53t-76.5 -19.5h-564q-43 0 -76.5 19.5t-53 53t-19.5 76.5v2z" />
    <glyph glyph-name="Umacron" unicode="&#x16a;" 
d="M-150 321q0 43 19.5 76.5t53 53t76.5 19.5h564q43 0 76.5 -19.5t53 -53t19.5 -76.5v-2q0 -43 -19.5 -76.5t-53 -53t-76.5 -19.5h-564q-43 0 -76.5 19.5t-53 53t-19.5 76.5v2z" />
    <glyph glyph-name="umacron" unicode="&#x16b;" 
d="M-150 321q0 43 19.5 76.5t53 53t76.5 19.5h564q43 0 76.5 -19.5t53 -53t19.5 -76.5v-2q0 -43 -19.5 -76.5t-53 -53t-76.5 -19.5h-564q-43 0 -76.5 19.5t-53 53t-19.5 76.5v2z" />
    <glyph glyph-name="Uring" unicode="&#x16e;" 
d="M-150 321q0 43 19.5 76.5t53 53t76.5 19.5h564q43 0 76.5 -19.5t53 -53t19.5 -76.5v-2q0 -43 -19.5 -76.5t-53 -53t-76.5 -19.5h-564q-43 0 -76.5 19.5t-53 53t-19.5 76.5v2z" />
    <glyph glyph-name="uring" unicode="&#x16f;" 
d="M-150 321q0 43 19.5 76.5t53 53t76.5 19.5h564q43 0 76.5 -19.5t53 -53t19.5 -76.5v-2q0 -43 -19.5 -76.5t-53 -53t-76.5 -19.5h-564q-43 0 -76.5 19.5t-53 53t-19.5 76.5v2z" />
    <glyph glyph-name="Uhungarumlaut" unicode="&#x170;" 
d="M-150 321q0 43 19.5 76.5t53 53t76.5 19.5h564q43 0 76.5 -19.5t53 -53t19.5 -76.5v-2q0 -43 -19.5 -76.5t-53 -53t-76.5 -19.5h-564q-43 0 -76.5 19.5t-53 53t-19.5 76.5v2z" />
    <glyph glyph-name="uhungarumlaut" unicode="&#x171;" 
d="M-150 321q0 43 19.5 76.5t53 53t76.5 19.5h564q43 0 76.5 -19.5t53 -53t19.5 -76.5v-2q0 -43 -19.5 -76.5t-53 -53t-76.5 -19.5h-564q-43 0 -76.5 19.5t-53 53t-19.5 76.5v2z" />
    <glyph glyph-name="Uogonek" unicode="&#x172;" 
d="M-150 321q0 43 19.5 76.5t53 53t76.5 19.5h564q43 0 76.5 -19.5t53 -53t19.5 -76.5v-2q0 -43 -19.5 -76.5t-53 -53t-76.5 -19.5h-564q-43 0 -76.5 19.5t-53 53t-19.5 76.5v2z" />
    <glyph glyph-name="uogonek" unicode="&#x173;" 
d="M-150 321q0 43 19.5 76.5t53 53t76.5 19.5h564q43 0 76.5 -19.5t53 -53t19.5 -76.5v-2q0 -43 -19.5 -76.5t-53 -53t-76.5 -19.5h-564q-43 0 -76.5 19.5t-53 53t-19.5 76.5v2z" />
    <glyph glyph-name="Wcircumflex" unicode="&#x174;" 
d="M-150 321q0 43 19.5 76.5t53 53t76.5 19.5h564q43 0 76.5 -19.5t53 -53t19.5 -76.5v-2q0 -43 -19.5 -76.5t-53 -53t-76.5 -19.5h-564q-43 0 -76.5 19.5t-53 53t-19.5 76.5v2z" />
    <glyph glyph-name="wcircumflex" unicode="&#x175;" 
d="M-150 321q0 43 19.5 76.5t53 53t76.5 19.5h564q43 0 76.5 -19.5t53 -53t19.5 -76.5v-2q0 -43 -19.5 -76.5t-53 -53t-76.5 -19.5h-564q-43 0 -76.5 19.5t-53 53t-19.5 76.5v2z" />
    <glyph glyph-name="Ycircumflex" unicode="&#x176;" 
d="M-150 321q0 43 19.5 76.5t53 53t76.5 19.5h564q43 0 76.5 -19.5t53 -53t19.5 -76.5v-2q0 -43 -19.5 -76.5t-53 -53t-76.5 -19.5h-564q-43 0 -76.5 19.5t-53 53t-19.5 76.5v2z" />
    <glyph glyph-name="ycircumflex" unicode="&#x177;" 
d="M-150 321q0 43 19.5 76.5t53 53t76.5 19.5h564q43 0 76.5 -19.5t53 -53t19.5 -76.5v-2q0 -43 -19.5 -76.5t-53 -53t-76.5 -19.5h-564q-43 0 -76.5 19.5t-53 53t-19.5 76.5v2z" />
    <glyph glyph-name="Ydieresis" unicode="&#x178;" 
d="M-150 321q0 43 19.5 76.5t53 53t76.5 19.5h564q43 0 76.5 -19.5t53 -53t19.5 -76.5v-2q0 -43 -19.5 -76.5t-53 -53t-76.5 -19.5h-564q-43 0 -76.5 19.5t-53 53t-19.5 76.5v2z" />
    <glyph glyph-name="Zacute" unicode="&#x179;" 
d="M-150 321q0 43 19.5 76.5t53 53t76.5 19.5h564q43 0 76.5 -19.5t53 -53t19.5 -76.5v-2q0 -43 -19.5 -76.5t-53 -53t-76.5 -19.5h-564q-43 0 -76.5 19.5t-53 53t-19.5 76.5v2z" />
    <glyph glyph-name="zacute" unicode="&#x17a;" 
d="M-150 321q0 43 19.5 76.5t53 53t76.5 19.5h564q43 0 76.5 -19.5t53 -53t19.5 -76.5v-2q0 -43 -19.5 -76.5t-53 -53t-76.5 -19.5h-564q-43 0 -76.5 19.5t-53 53t-19.5 76.5v2z" />
    <glyph glyph-name="Zdotaccent" unicode="&#x17b;" 
d="M-150 321q0 43 19.5 76.5t53 53t76.5 19.5h564q43 0 76.5 -19.5t53 -53t19.5 -76.5v-2q0 -43 -19.5 -76.5t-53 -53t-76.5 -19.5h-564q-43 0 -76.5 19.5t-53 53t-19.5 76.5v2z" />
    <glyph glyph-name="zdotaccent" unicode="&#x17c;" 
d="M-150 321q0 43 19.5 76.5t53 53t76.5 19.5h564q43 0 76.5 -19.5t53 -53t19.5 -76.5v-2q0 -43 -19.5 -76.5t-53 -53t-76.5 -19.5h-564q-43 0 -76.5 19.5t-53 53t-19.5 76.5v2z" />
    <glyph glyph-name="Zcaron" unicode="&#x17d;" 
d="M-150 321q0 43 19.5 76.5t53 53t76.5 19.5h564q43 0 76.5 -19.5t53 -53t19.5 -76.5v-2q0 -43 -19.5 -76.5t-53 -53t-76.5 -19.5h-564q-43 0 -76.5 19.5t-53 53t-19.5 76.5v2z" />
    <glyph glyph-name="zcaron" unicode="&#x17e;" 
d="M-150 321q0 43 19.5 76.5t53 53t76.5 19.5h564q43 0 76.5 -19.5t53 -53t19.5 -76.5v-2q0 -43 -19.5 -76.5t-53 -53t-76.5 -19.5h-564q-43 0 -76.5 19.5t-53 53t-19.5 76.5v2z" />
    <glyph glyph-name="uni0181" unicode="&#x181;" 
d="M-150 321q0 43 19.5 76.5t53 53t76.5 19.5h564q43 0 76.5 -19.5t53 -53t19.5 -76.5v-2q0 -43 -19.5 -76.5t-53 -53t-76.5 -19.5h-564q-43 0 -76.5 19.5t-53 53t-19.5 76.5v2z" />
    <glyph glyph-name="uni0186" unicode="&#x186;" 
d="M-150 321q0 43 19.5 76.5t53 53t76.5 19.5h564q43 0 76.5 -19.5t53 -53t19.5 -76.5v-2q0 -43 -19.5 -76.5t-53 -53t-76.5 -19.5h-564q-43 0 -76.5 19.5t-53 53t-19.5 76.5v2z" />
    <glyph glyph-name="uni0187" unicode="&#x187;" 
d="M-150 321q0 43 19.5 76.5t53 53t76.5 19.5h564q43 0 76.5 -19.5t53 -53t19.5 -76.5v-2q0 -43 -19.5 -76.5t-53 -53t-76.5 -19.5h-564q-43 0 -76.5 19.5t-53 53t-19.5 76.5v2z" />
    <glyph glyph-name="uni0188" unicode="&#x188;" 
d="M-150 321q0 43 19.5 76.5t53 53t76.5 19.5h564q43 0 76.5 -19.5t53 -53t19.5 -76.5v-2q0 -43 -19.5 -76.5t-53 -53t-76.5 -19.5h-564q-43 0 -76.5 19.5t-53 53t-19.5 76.5v2z" />
    <glyph glyph-name="uni0189" unicode="&#x189;" 
d="M-150 321q0 43 19.5 76.5t53 53t76.5 19.5h564q43 0 76.5 -19.5t53 -53t19.5 -76.5v-2q0 -43 -19.5 -76.5t-53 -53t-76.5 -19.5h-564q-43 0 -76.5 19.5t-53 53t-19.5 76.5v2z" />
    <glyph glyph-name="uni018A" unicode="&#x18a;" 
d="M-150 321q0 43 19.5 76.5t53 53t76.5 19.5h564q43 0 76.5 -19.5t53 -53t19.5 -76.5v-2q0 -43 -19.5 -76.5t-53 -53t-76.5 -19.5h-564q-43 0 -76.5 19.5t-53 53t-19.5 76.5v2z" />
    <glyph glyph-name="uni018E" unicode="&#x18e;" 
d="M-150 321q0 43 19.5 76.5t53 53t76.5 19.5h564q43 0 76.5 -19.5t53 -53t19.5 -76.5v-2q0 -43 -19.5 -76.5t-53 -53t-76.5 -19.5h-564q-43 0 -76.5 19.5t-53 53t-19.5 76.5v2z" />
    <glyph glyph-name="uni018F" unicode="&#x18f;" 
d="M-150 321q0 43 19.5 76.5t53 53t76.5 19.5h564q43 0 76.5 -19.5t53 -53t19.5 -76.5v-2q0 -43 -19.5 -76.5t-53 -53t-76.5 -19.5h-564q-43 0 -76.5 19.5t-53 53t-19.5 76.5v2z" />
    <glyph glyph-name="uni0190" unicode="&#x190;" 
d="M-150 321q0 43 19.5 76.5t53 53t76.5 19.5h564q43 0 76.5 -19.5t53 -53t19.5 -76.5v-2q0 -43 -19.5 -76.5t-53 -53t-76.5 -19.5h-564q-43 0 -76.5 19.5t-53 53t-19.5 76.5v2z" />
    <glyph glyph-name="uni0191" unicode="&#x191;" horiz-adv-x="286" 
d="M-150 321q0 43 19.5 76.5t53 53t76.5 19.5h288q43 0 76.5 -19.5t53 -53t19.5 -76.5v-2q0 -43 -19.5 -76.5t-53 -53t-76.5 -19.5h-288q-43 0 -76.5 19.5t-53 53t-19.5 76.5v2z" />
    <glyph glyph-name="florin" unicode="&#x192;" horiz-adv-x="286" 
d="M-150 321q0 43 19.5 76.5t53 53t76.5 19.5h288q43 0 76.5 -19.5t53 -53t19.5 -76.5v-2q0 -43 -19.5 -76.5t-53 -53t-76.5 -19.5h-288q-43 0 -76.5 19.5t-53 53t-19.5 76.5v2z" />
    <glyph glyph-name="uni0193" unicode="&#x193;" 
d="M-150 321q0 43 19.5 76.5t53 53t76.5 19.5h564q43 0 76.5 -19.5t53 -53t19.5 -76.5v-2q0 -43 -19.5 -76.5t-53 -53t-76.5 -19.5h-564q-43 0 -76.5 19.5t-53 53t-19.5 76.5v2z" />
    <glyph glyph-name="uni0197" unicode="&#x197;" horiz-adv-x="286" 
d="M-150 321q0 43 19.5 76.5t53 53t76.5 19.5h288q43 0 76.5 -19.5t53 -53t19.5 -76.5v-2q0 -43 -19.5 -76.5t-53 -53t-76.5 -19.5h-288q-43 0 -76.5 19.5t-53 53t-19.5 76.5v2z" />
    <glyph glyph-name="uni0198" unicode="&#x198;" 
d="M-150 321q0 43 19.5 76.5t53 53t76.5 19.5h564q43 0 76.5 -19.5t53 -53t19.5 -76.5v-2q0 -43 -19.5 -76.5t-53 -53t-76.5 -19.5h-564q-43 0 -76.5 19.5t-53 53t-19.5 76.5v2z" />
    <glyph glyph-name="uni0199" unicode="&#x199;" 
d="M-150 321q0 43 19.5 76.5t53 53t76.5 19.5h564q43 0 76.5 -19.5t53 -53t19.5 -76.5v-2q0 -43 -19.5 -76.5t-53 -53t-76.5 -19.5h-564q-43 0 -76.5 19.5t-53 53t-19.5 76.5v2z" />
    <glyph glyph-name="uni019D" unicode="&#x19d;" 
d="M-150 321q0 43 19.5 76.5t53 53t76.5 19.5h564q43 0 76.5 -19.5t53 -53t19.5 -76.5v-2q0 -43 -19.5 -76.5t-53 -53t-76.5 -19.5h-564q-43 0 -76.5 19.5t-53 53t-19.5 76.5v2z" />
    <glyph glyph-name="Ohorn" unicode="&#x1a0;" 
d="M-150 321q0 43 19.5 76.5t53 53t76.5 19.5h564q43 0 76.5 -19.5t53 -53t19.5 -76.5v-2q0 -43 -19.5 -76.5t-53 -53t-76.5 -19.5h-564q-43 0 -76.5 19.5t-53 53t-19.5 76.5v2z" />
    <glyph glyph-name="ohorn" unicode="&#x1a1;" 
d="M-150 321q0 43 19.5 76.5t53 53t76.5 19.5h564q43 0 76.5 -19.5t53 -53t19.5 -76.5v-2q0 -43 -19.5 -76.5t-53 -53t-76.5 -19.5h-564q-43 0 -76.5 19.5t-53 53t-19.5 76.5v2z" />
    <glyph glyph-name="uni01A4" unicode="&#x1a4;" 
d="M-150 321q0 43 19.5 76.5t53 53t76.5 19.5h564q43 0 76.5 -19.5t53 -53t19.5 -76.5v-2q0 -43 -19.5 -76.5t-53 -53t-76.5 -19.5h-564q-43 0 -76.5 19.5t-53 53t-19.5 76.5v2z" />
    <glyph glyph-name="uni01A5" unicode="&#x1a5;" 
d="M-150 321q0 43 19.5 76.5t53 53t76.5 19.5h564q43 0 76.5 -19.5t53 -53t19.5 -76.5v-2q0 -43 -19.5 -76.5t-53 -53t-76.5 -19.5h-564q-43 0 -76.5 19.5t-53 53t-19.5 76.5v2z" />
    <glyph glyph-name="uni01A9" unicode="&#x1a9;" 
d="M-150 321q0 43 19.5 76.5t53 53t76.5 19.5h564q43 0 76.5 -19.5t53 -53t19.5 -76.5v-2q0 -43 -19.5 -76.5t-53 -53t-76.5 -19.5h-564q-43 0 -76.5 19.5t-53 53t-19.5 76.5v2z" />
    <glyph glyph-name="uni01AC" unicode="&#x1ac;" horiz-adv-x="286" 
d="M-150 321q0 43 19.5 76.5t53 53t76.5 19.5h288q43 0 76.5 -19.5t53 -53t19.5 -76.5v-2q0 -43 -19.5 -76.5t-53 -53t-76.5 -19.5h-288q-43 0 -76.5 19.5t-53 53t-19.5 76.5v2z" />
    <glyph glyph-name="uni01AD" unicode="&#x1ad;" horiz-adv-x="286" 
d="M-150 321q0 43 19.5 76.5t53 53t76.5 19.5h288q43 0 76.5 -19.5t53 -53t19.5 -76.5v-2q0 -43 -19.5 -76.5t-53 -53t-76.5 -19.5h-288q-43 0 -76.5 19.5t-53 53t-19.5 76.5v2z" />
    <glyph glyph-name="uni01AE" unicode="&#x1ae;" horiz-adv-x="286" 
d="M-150 321q0 43 19.5 76.5t53 53t76.5 19.5h288q43 0 76.5 -19.5t53 -53t19.5 -76.5v-2q0 -43 -19.5 -76.5t-53 -53t-76.5 -19.5h-288q-43 0 -76.5 19.5t-53 53t-19.5 76.5v2z" />
    <glyph glyph-name="Uhorn" unicode="&#x1af;" 
d="M-150 321q0 43 19.5 76.5t53 53t76.5 19.5h564q43 0 76.5 -19.5t53 -53t19.5 -76.5v-2q0 -43 -19.5 -76.5t-53 -53t-76.5 -19.5h-564q-43 0 -76.5 19.5t-53 53t-19.5 76.5v2z" />
    <glyph glyph-name="uhorn" unicode="&#x1b0;" 
d="M-150 321q0 43 19.5 76.5t53 53t76.5 19.5h564q43 0 76.5 -19.5t53 -53t19.5 -76.5v-2q0 -43 -19.5 -76.5t-53 -53t-76.5 -19.5h-564q-43 0 -76.5 19.5t-53 53t-19.5 76.5v2z" />
    <glyph glyph-name="uni01B1" unicode="&#x1b1;" 
d="M-150 321q0 43 19.5 76.5t53 53t76.5 19.5h564q43 0 76.5 -19.5t53 -53t19.5 -76.5v-2q0 -43 -19.5 -76.5t-53 -53t-76.5 -19.5h-564q-43 0 -76.5 19.5t-53 53t-19.5 76.5v2z" />
    <glyph glyph-name="uni01B2" unicode="&#x1b2;" 
d="M-150 321q0 43 19.5 76.5t53 53t76.5 19.5h564q43 0 76.5 -19.5t53 -53t19.5 -76.5v-2q0 -43 -19.5 -76.5t-53 -53t-76.5 -19.5h-564q-43 0 -76.5 19.5t-53 53t-19.5 76.5v2z" />
    <glyph glyph-name="uni01B3" unicode="&#x1b3;" 
d="M-150 321q0 43 19.5 76.5t53 53t76.5 19.5h564q43 0 76.5 -19.5t53 -53t19.5 -76.5v-2q0 -43 -19.5 -76.5t-53 -53t-76.5 -19.5h-564q-43 0 -76.5 19.5t-53 53t-19.5 76.5v2z" />
    <glyph glyph-name="uni01B4" unicode="&#x1b4;" 
d="M-150 321q0 43 19.5 76.5t53 53t76.5 19.5h564q43 0 76.5 -19.5t53 -53t19.5 -76.5v-2q0 -43 -19.5 -76.5t-53 -53t-76.5 -19.5h-564q-43 0 -76.5 19.5t-53 53t-19.5 76.5v2z" />
    <glyph glyph-name="uni01B7" unicode="&#x1b7;" 
d="M-150 321q0 43 19.5 76.5t53 53t76.5 19.5h564q43 0 76.5 -19.5t53 -53t19.5 -76.5v-2q0 -43 -19.5 -76.5t-53 -53t-76.5 -19.5h-564q-43 0 -76.5 19.5t-53 53t-19.5 76.5v2z" />
    <glyph glyph-name="uni01C0" unicode="&#x1c0;" horiz-adv-x="286" 
d="M-150 321q0 43 19.5 76.5t53 53t76.5 19.5h288q43 0 76.5 -19.5t53 -53t19.5 -76.5v-2q0 -43 -19.5 -76.5t-53 -53t-76.5 -19.5h-288q-43 0 -76.5 19.5t-53 53t-19.5 76.5v2z" />
    <glyph glyph-name="uni01C1" unicode="&#x1c1;" horiz-adv-x="286" 
d="M-150 321q0 43 19.5 76.5t53 53t76.5 19.5h288q43 0 76.5 -19.5t53 -53t19.5 -76.5v-2q0 -43 -19.5 -76.5t-53 -53t-76.5 -19.5h-288q-43 0 -76.5 19.5t-53 53t-19.5 76.5v2z" />
    <glyph glyph-name="uni01C2" unicode="&#x1c2;" horiz-adv-x="286" 
d="M-150 321q0 43 19.5 76.5t53 53t76.5 19.5h288q43 0 76.5 -19.5t53 -53t19.5 -76.5v-2q0 -43 -19.5 -76.5t-53 -53t-76.5 -19.5h-288q-43 0 -76.5 19.5t-53 53t-19.5 76.5v2z" />
    <glyph glyph-name="uni01C3" unicode="&#x1c3;" horiz-adv-x="286" 
d="M-150 321q0 43 19.5 76.5t53 53t76.5 19.5h288q43 0 76.5 -19.5t53 -53t19.5 -76.5v-2q0 -43 -19.5 -76.5t-53 -53t-76.5 -19.5h-288q-43 0 -76.5 19.5t-53 53t-19.5 76.5v2z" />
    <glyph glyph-name="uni01CD" unicode="&#x1cd;" horiz-adv-x="600" 
d="M-150 321q0 43 19.5 76.5t53 53t76.5 19.5h564q43 0 76.5 -19.5t53 -53t19.5 -76.5v-2q0 -43 -19.5 -76.5t-53 -53t-76.5 -19.5h-564q-43 0 -76.5 19.5t-53 53t-19.5 76.5v2zM-150 321q0 43 19.5 76.5t53 53t76.5 19.5h288q43 0 76.5 -19.5t53 -53t19.5 -76.5v-2
q0 -43 -19.5 -76.5t-53 -53t-76.5 -19.5h-288q-43 0 -76.5 19.5t-53 53t-19.5 76.5v2z" />
    <glyph glyph-name="uni01CE" unicode="&#x1ce;" horiz-adv-x="600" 
d="M-150 321q0 43 19.5 76.5t53 53t76.5 19.5h564q43 0 76.5 -19.5t53 -53t19.5 -76.5v-2q0 -43 -19.5 -76.5t-53 -53t-76.5 -19.5h-564q-43 0 -76.5 19.5t-53 53t-19.5 76.5v2zM-150 321q0 43 19.5 76.5t53 53t76.5 19.5h288q43 0 76.5 -19.5t53 -53t19.5 -76.5v-2
q0 -43 -19.5 -76.5t-53 -53t-76.5 -19.5h-288q-43 0 -76.5 19.5t-53 53t-19.5 76.5v2z" />
    <glyph glyph-name="uni01CF" unicode="&#x1cf;" horiz-adv-x="600" 
d="M-150 321q0 43 19.5 76.5t53 53t76.5 19.5h288q43 0 76.5 -19.5t53 -53t19.5 -76.5v-2q0 -43 -19.5 -76.5t-53 -53t-76.5 -19.5h-288q-43 0 -76.5 19.5t-53 53t-19.5 76.5v2zM-150 321q0 43 19.5 76.5t53 53t76.5 19.5h288q43 0 76.5 -19.5t53 -53t19.5 -76.5v-2
q0 -43 -19.5 -76.5t-53 -53t-76.5 -19.5h-288q-43 0 -76.5 19.5t-53 53t-19.5 76.5v2z" />
    <glyph glyph-name="uni01D0" unicode="&#x1d0;" horiz-adv-x="286" 
d="M-150 321q0 43 19.5 76.5t53 53t76.5 19.5h288q43 0 76.5 -19.5t53 -53t19.5 -76.5v-2q0 -43 -19.5 -76.5t-53 -53t-76.5 -19.5h-288q-43 0 -76.5 19.5t-53 53t-19.5 76.5v2z" />
    <glyph glyph-name="uni01D1" unicode="&#x1d1;" horiz-adv-x="600" 
d="M-150 321q0 43 19.5 76.5t53 53t76.5 19.5h564q43 0 76.5 -19.5t53 -53t19.5 -76.5v-2q0 -43 -19.5 -76.5t-53 -53t-76.5 -19.5h-564q-43 0 -76.5 19.5t-53 53t-19.5 76.5v2zM-150 321q0 43 19.5 76.5t53 53t76.5 19.5h288q43 0 76.5 -19.5t53 -53t19.5 -76.5v-2
q0 -43 -19.5 -76.5t-53 -53t-76.5 -19.5h-288q-43 0 -76.5 19.5t-53 53t-19.5 76.5v2z" />
    <glyph glyph-name="uni01D2" unicode="&#x1d2;" horiz-adv-x="600" 
d="M-150 321q0 43 19.5 76.5t53 53t76.5 19.5h564q43 0 76.5 -19.5t53 -53t19.5 -76.5v-2q0 -43 -19.5 -76.5t-53 -53t-76.5 -19.5h-564q-43 0 -76.5 19.5t-53 53t-19.5 76.5v2zM-150 321q0 43 19.5 76.5t53 53t76.5 19.5h288q43 0 76.5 -19.5t53 -53t19.5 -76.5v-2
q0 -43 -19.5 -76.5t-53 -53t-76.5 -19.5h-288q-43 0 -76.5 19.5t-53 53t-19.5 76.5v2z" />
    <glyph glyph-name="uni01D3" unicode="&#x1d3;" horiz-adv-x="600" 
d="M-150 321q0 43 19.5 76.5t53 53t76.5 19.5h564q43 0 76.5 -19.5t53 -53t19.5 -76.5v-2q0 -43 -19.5 -76.5t-53 -53t-76.5 -19.5h-564q-43 0 -76.5 19.5t-53 53t-19.5 76.5v2zM-150 321q0 43 19.5 76.5t53 53t76.5 19.5h288q43 0 76.5 -19.5t53 -53t19.5 -76.5v-2
q0 -43 -19.5 -76.5t-53 -53t-76.5 -19.5h-288q-43 0 -76.5 19.5t-53 53t-19.5 76.5v2z" />
    <glyph glyph-name="uni01D4" unicode="&#x1d4;" horiz-adv-x="600" 
d="M-150 321q0 43 19.5 76.5t53 53t76.5 19.5h564q43 0 76.5 -19.5t53 -53t19.5 -76.5v-2q0 -43 -19.5 -76.5t-53 -53t-76.5 -19.5h-564q-43 0 -76.5 19.5t-53 53t-19.5 76.5v2zM-150 321q0 43 19.5 76.5t53 53t76.5 19.5h288q43 0 76.5 -19.5t53 -53t19.5 -76.5v-2
q0 -43 -19.5 -76.5t-53 -53t-76.5 -19.5h-288q-43 0 -76.5 19.5t-53 53t-19.5 76.5v2z" />
    <glyph glyph-name="uni01D5" unicode="&#x1d5;" horiz-adv-x="600" 
d="M-150 321q0 43 19.5 76.5t53 53t76.5 19.5h564q43 0 76.5 -19.5t53 -53t19.5 -76.5v-2q0 -43 -19.5 -76.5t-53 -53t-76.5 -19.5h-564q-43 0 -76.5 19.5t-53 53t-19.5 76.5v2zM-150 321q0 43 19.5 76.5t53 53t76.5 19.5h288q43 0 76.5 -19.5t53 -53t19.5 -76.5v-2
q0 -43 -19.5 -76.5t-53 -53t-76.5 -19.5h-288q-43 0 -76.5 19.5t-53 53t-19.5 76.5v2zM-150 321q0 43 19.5 76.5t53 53t76.5 19.5h288q43 0 76.5 -19.5t53 -53t19.5 -76.5v-2q0 -43 -19.5 -76.5t-53 -53t-76.5 -19.5h-288q-43 0 -76.5 19.5t-53 53t-19.5 76.5v2z" />
    <glyph glyph-name="uni01D6" unicode="&#x1d6;" horiz-adv-x="600" 
d="M-150 321q0 43 19.5 76.5t53 53t76.5 19.5h564q43 0 76.5 -19.5t53 -53t19.5 -76.5v-2q0 -43 -19.5 -76.5t-53 -53t-76.5 -19.5h-564q-43 0 -76.5 19.5t-53 53t-19.5 76.5v2zM-150 321q0 43 19.5 76.5t53 53t76.5 19.5h288q43 0 76.5 -19.5t53 -53t19.5 -76.5v-2
q0 -43 -19.5 -76.5t-53 -53t-76.5 -19.5h-288q-43 0 -76.5 19.5t-53 53t-19.5 76.5v2zM-150 321q0 43 19.5 76.5t53 53t76.5 19.5h288q43 0 76.5 -19.5t53 -53t19.5 -76.5v-2q0 -43 -19.5 -76.5t-53 -53t-76.5 -19.5h-288q-43 0 -76.5 19.5t-53 53t-19.5 76.5v2z" />
    <glyph glyph-name="uni01D7" unicode="&#x1d7;" horiz-adv-x="600" 
d="M-150 321q0 43 19.5 76.5t53 53t76.5 19.5h564q43 0 76.5 -19.5t53 -53t19.5 -76.5v-2q0 -43 -19.5 -76.5t-53 -53t-76.5 -19.5h-564q-43 0 -76.5 19.5t-53 53t-19.5 76.5v2zM-150 321q0 43 19.5 76.5t53 53t76.5 19.5h288q43 0 76.5 -19.5t53 -53t19.5 -76.5v-2
q0 -43 -19.5 -76.5t-53 -53t-76.5 -19.5h-288q-43 0 -76.5 19.5t-53 53t-19.5 76.5v2zM-150 321q0 43 19.5 76.5t53 53t76.5 19.5h288q43 0 76.5 -19.5t53 -53t19.5 -76.5v-2q0 -43 -19.5 -76.5t-53 -53t-76.5 -19.5h-288q-43 0 -76.5 19.5t-53 53t-19.5 76.5v2z" />
    <glyph glyph-name="uni01D8" unicode="&#x1d8;" horiz-adv-x="600" 
d="M-150 321q0 43 19.5 76.5t53 53t76.5 19.5h564q43 0 76.5 -19.5t53 -53t19.5 -76.5v-2q0 -43 -19.5 -76.5t-53 -53t-76.5 -19.5h-564q-43 0 -76.5 19.5t-53 53t-19.5 76.5v2zM-150 321q0 43 19.5 76.5t53 53t76.5 19.5h288q43 0 76.5 -19.5t53 -53t19.5 -76.5v-2
q0 -43 -19.5 -76.5t-53 -53t-76.5 -19.5h-288q-43 0 -76.5 19.5t-53 53t-19.5 76.5v2zM-150 321q0 43 19.5 76.5t53 53t76.5 19.5h288q43 0 76.5 -19.5t53 -53t19.5 -76.5v-2q0 -43 -19.5 -76.5t-53 -53t-76.5 -19.5h-288q-43 0 -76.5 19.5t-53 53t-19.5 76.5v2z" />
    <glyph glyph-name="uni01D9" unicode="&#x1d9;" horiz-adv-x="600" 
d="M-150 321q0 43 19.5 76.5t53 53t76.5 19.5h564q43 0 76.5 -19.5t53 -53t19.5 -76.5v-2q0 -43 -19.5 -76.5t-53 -53t-76.5 -19.5h-564q-43 0 -76.5 19.5t-53 53t-19.5 76.5v2zM-150 321q0 43 19.5 76.5t53 53t76.5 19.5h288q43 0 76.5 -19.5t53 -53t19.5 -76.5v-2
q0 -43 -19.5 -76.5t-53 -53t-76.5 -19.5h-288q-43 0 -76.5 19.5t-53 53t-19.5 76.5v2zM-150 321q0 43 19.5 76.5t53 53t76.5 19.5h288q43 0 76.5 -19.5t53 -53t19.5 -76.5v-2q0 -43 -19.5 -76.5t-53 -53t-76.5 -19.5h-288q-43 0 -76.5 19.5t-53 53t-19.5 76.5v2z" />
    <glyph glyph-name="uni01DA" unicode="&#x1da;" horiz-adv-x="600" 
d="M-150 321q0 43 19.5 76.5t53 53t76.5 19.5h564q43 0 76.5 -19.5t53 -53t19.5 -76.5v-2q0 -43 -19.5 -76.5t-53 -53t-76.5 -19.5h-564q-43 0 -76.5 19.5t-53 53t-19.5 76.5v2zM-150 321q0 43 19.5 76.5t53 53t76.5 19.5h288q43 0 76.5 -19.5t53 -53t19.5 -76.5v-2
q0 -43 -19.5 -76.5t-53 -53t-76.5 -19.5h-288q-43 0 -76.5 19.5t-53 53t-19.5 76.5v2zM-150 321q0 43 19.5 76.5t53 53t76.5 19.5h288q43 0 76.5 -19.5t53 -53t19.5 -76.5v-2q0 -43 -19.5 -76.5t-53 -53t-76.5 -19.5h-288q-43 0 -76.5 19.5t-53 53t-19.5 76.5v2z" />
    <glyph glyph-name="uni01DB" unicode="&#x1db;" horiz-adv-x="600" 
d="M-150 321q0 43 19.5 76.5t53 53t76.5 19.5h564q43 0 76.5 -19.5t53 -53t19.5 -76.5v-2q0 -43 -19.5 -76.5t-53 -53t-76.5 -19.5h-564q-43 0 -76.5 19.5t-53 53t-19.5 76.5v2zM-150 321q0 43 19.5 76.5t53 53t76.5 19.5h288q43 0 76.5 -19.5t53 -53t19.5 -76.5v-2
q0 -43 -19.5 -76.5t-53 -53t-76.5 -19.5h-288q-43 0 -76.5 19.5t-53 53t-19.5 76.5v2zM-150 321q0 43 19.5 76.5t53 53t76.5 19.5h288q43 0 76.5 -19.5t53 -53t19.5 -76.5v-2q0 -43 -19.5 -76.5t-53 -53t-76.5 -19.5h-288q-43 0 -76.5 19.5t-53 53t-19.5 76.5v2z" />
    <glyph glyph-name="uni01DC" unicode="&#x1dc;" horiz-adv-x="600" 
d="M-150 321q0 43 19.5 76.5t53 53t76.5 19.5h564q43 0 76.5 -19.5t53 -53t19.5 -76.5v-2q0 -43 -19.5 -76.5t-53 -53t-76.5 -19.5h-564q-43 0 -76.5 19.5t-53 53t-19.5 76.5v2zM-150 321q0 43 19.5 76.5t53 53t76.5 19.5h288q43 0 76.5 -19.5t53 -53t19.5 -76.5v-2
q0 -43 -19.5 -76.5t-53 -53t-76.5 -19.5h-288q-43 0 -76.5 19.5t-53 53t-19.5 76.5v2zM-150 321q0 43 19.5 76.5t53 53t76.5 19.5h288q43 0 76.5 -19.5t53 -53t19.5 -76.5v-2q0 -43 -19.5 -76.5t-53 -53t-76.5 -19.5h-288q-43 0 -76.5 19.5t-53 53t-19.5 76.5v2z" />
    <glyph glyph-name="uni01DD" unicode="&#x1dd;" 
d="M-150 321q0 43 19.5 76.5t53 53t76.5 19.5h564q43 0 76.5 -19.5t53 -53t19.5 -76.5v-2q0 -43 -19.5 -76.5t-53 -53t-76.5 -19.5h-564q-43 0 -76.5 19.5t-53 53t-19.5 76.5v2z" />
    <glyph glyph-name="uni01DE" unicode="&#x1de;" horiz-adv-x="600" 
d="M-150 321q0 43 19.5 76.5t53 53t76.5 19.5h564q43 0 76.5 -19.5t53 -53t19.5 -76.5v-2q0 -43 -19.5 -76.5t-53 -53t-76.5 -19.5h-564q-43 0 -76.5 19.5t-53 53t-19.5 76.5v2zM-150 321q0 43 19.5 76.5t53 53t76.5 19.5h288q43 0 76.5 -19.5t53 -53t19.5 -76.5v-2
q0 -43 -19.5 -76.5t-53 -53t-76.5 -19.5h-288q-43 0 -76.5 19.5t-53 53t-19.5 76.5v2zM-150 321q0 43 19.5 76.5t53 53t76.5 19.5h288q43 0 76.5 -19.5t53 -53t19.5 -76.5v-2q0 -43 -19.5 -76.5t-53 -53t-76.5 -19.5h-288q-43 0 -76.5 19.5t-53 53t-19.5 76.5v2z" />
    <glyph glyph-name="uni01DF" unicode="&#x1df;" horiz-adv-x="600" 
d="M-150 321q0 43 19.5 76.5t53 53t76.5 19.5h564q43 0 76.5 -19.5t53 -53t19.5 -76.5v-2q0 -43 -19.5 -76.5t-53 -53t-76.5 -19.5h-564q-43 0 -76.5 19.5t-53 53t-19.5 76.5v2zM-150 321q0 43 19.5 76.5t53 53t76.5 19.5h288q43 0 76.5 -19.5t53 -53t19.5 -76.5v-2
q0 -43 -19.5 -76.5t-53 -53t-76.5 -19.5h-288q-43 0 -76.5 19.5t-53 53t-19.5 76.5v2zM-150 321q0 43 19.5 76.5t53 53t76.5 19.5h288q43 0 76.5 -19.5t53 -53t19.5 -76.5v-2q0 -43 -19.5 -76.5t-53 -53t-76.5 -19.5h-288q-43 0 -76.5 19.5t-53 53t-19.5 76.5v2z" />
    <glyph glyph-name="Gcaron" unicode="&#x1e6;" horiz-adv-x="600" 
d="M-150 321q0 43 19.5 76.5t53 53t76.5 19.5h564q43 0 76.5 -19.5t53 -53t19.5 -76.5v-2q0 -43 -19.5 -76.5t-53 -53t-76.5 -19.5h-564q-43 0 -76.5 19.5t-53 53t-19.5 76.5v2zM-150 321q0 43 19.5 76.5t53 53t76.5 19.5h288q43 0 76.5 -19.5t53 -53t19.5 -76.5v-2
q0 -43 -19.5 -76.5t-53 -53t-76.5 -19.5h-288q-43 0 -76.5 19.5t-53 53t-19.5 76.5v2z" />
    <glyph glyph-name="gcaron" unicode="&#x1e7;" horiz-adv-x="600" 
d="M-150 321q0 43 19.5 76.5t53 53t76.5 19.5h564q43 0 76.5 -19.5t53 -53t19.5 -76.5v-2q0 -43 -19.5 -76.5t-53 -53t-76.5 -19.5h-564q-43 0 -76.5 19.5t-53 53t-19.5 76.5v2zM-150 321q0 43 19.5 76.5t53 53t76.5 19.5h288q43 0 76.5 -19.5t53 -53t19.5 -76.5v-2
q0 -43 -19.5 -76.5t-53 -53t-76.5 -19.5h-288q-43 0 -76.5 19.5t-53 53t-19.5 76.5v2z" />
    <glyph glyph-name="Oslashacute" unicode="&#x1fe;" horiz-adv-x="600" 
d="M-150 321q0 43 19.5 76.5t53 53t76.5 19.5h564q43 0 76.5 -19.5t53 -53t19.5 -76.5v-2q0 -43 -19.5 -76.5t-53 -53t-76.5 -19.5h-564q-43 0 -76.5 19.5t-53 53t-19.5 76.5v2zM-150 321q0 43 19.5 76.5t53 53t76.5 19.5h288q43 0 76.5 -19.5t53 -53t19.5 -76.5v-2
q0 -43 -19.5 -76.5t-53 -53t-76.5 -19.5h-288q-43 0 -76.5 19.5t-53 53t-19.5 76.5v2z" />
    <glyph glyph-name="oslashacute" unicode="&#x1ff;" horiz-adv-x="600" 
d="M-150 321q0 43 19.5 76.5t53 53t76.5 19.5h564q43 0 76.5 -19.5t53 -53t19.5 -76.5v-2q0 -43 -19.5 -76.5t-53 -53t-76.5 -19.5h-564q-43 0 -76.5 19.5t-53 53t-19.5 76.5v2zM-150 321q0 43 19.5 76.5t53 53t76.5 19.5h288q43 0 76.5 -19.5t53 -53t19.5 -76.5v-2
q0 -43 -19.5 -76.5t-53 -53t-76.5 -19.5h-288q-43 0 -76.5 19.5t-53 53t-19.5 76.5v2z" />
    <glyph glyph-name="uni0218" unicode="&#x218;" 
d="M-150 321q0 43 19.5 76.5t53 53t76.5 19.5h564q43 0 76.5 -19.5t53 -53t19.5 -76.5v-2q0 -43 -19.5 -76.5t-53 -53t-76.5 -19.5h-564q-43 0 -76.5 19.5t-53 53t-19.5 76.5v2z" />
    <glyph glyph-name="uni0219" unicode="&#x219;" 
d="M-150 321q0 43 19.5 76.5t53 53t76.5 19.5h564q43 0 76.5 -19.5t53 -53t19.5 -76.5v-2q0 -43 -19.5 -76.5t-53 -53t-76.5 -19.5h-564q-43 0 -76.5 19.5t-53 53t-19.5 76.5v2z" />
    <glyph glyph-name="uni021A" unicode="&#x21a;" horiz-adv-x="286" 
d="M-150 321q0 43 19.5 76.5t53 53t76.5 19.5h288q43 0 76.5 -19.5t53 -53t19.5 -76.5v-2q0 -43 -19.5 -76.5t-53 -53t-76.5 -19.5h-288q-43 0 -76.5 19.5t-53 53t-19.5 76.5v2z" />
    <glyph glyph-name="uni021B" unicode="&#x21b;" horiz-adv-x="286" 
d="M-150 321q0 43 19.5 76.5t53 53t76.5 19.5h288q43 0 76.5 -19.5t53 -53t19.5 -76.5v-2q0 -43 -19.5 -76.5t-53 -53t-76.5 -19.5h-288q-43 0 -76.5 19.5t-53 53t-19.5 76.5v2z" />
    <glyph glyph-name="uni0228" unicode="&#x228;" horiz-adv-x="600" 
d="M-150 321q0 43 19.5 76.5t53 53t76.5 19.5h564q43 0 76.5 -19.5t53 -53t19.5 -76.5v-2q0 -43 -19.5 -76.5t-53 -53t-76.5 -19.5h-564q-43 0 -76.5 19.5t-53 53t-19.5 76.5v2zM-150 321q0 43 19.5 76.5t53 53t76.5 19.5h288q43 0 76.5 -19.5t53 -53t19.5 -76.5v-2
q0 -43 -19.5 -76.5t-53 -53t-76.5 -19.5h-288q-43 0 -76.5 19.5t-53 53t-19.5 76.5v2z" />
    <glyph glyph-name="uni0229" unicode="&#x229;" horiz-adv-x="600" 
d="M-150 321q0 43 19.5 76.5t53 53t76.5 19.5h564q43 0 76.5 -19.5t53 -53t19.5 -76.5v-2q0 -43 -19.5 -76.5t-53 -53t-76.5 -19.5h-564q-43 0 -76.5 19.5t-53 53t-19.5 76.5v2zM-150 321q0 43 19.5 76.5t53 53t76.5 19.5h288q43 0 76.5 -19.5t53 -53t19.5 -76.5v-2
q0 -43 -19.5 -76.5t-53 -53t-76.5 -19.5h-288q-43 0 -76.5 19.5t-53 53t-19.5 76.5v2z" />
    <glyph glyph-name="uni022A" unicode="&#x22a;" horiz-adv-x="600" 
d="M-150 321q0 43 19.5 76.5t53 53t76.5 19.5h564q43 0 76.5 -19.5t53 -53t19.5 -76.5v-2q0 -43 -19.5 -76.5t-53 -53t-76.5 -19.5h-564q-43 0 -76.5 19.5t-53 53t-19.5 76.5v2zM-150 321q0 43 19.5 76.5t53 53t76.5 19.5h288q43 0 76.5 -19.5t53 -53t19.5 -76.5v-2
q0 -43 -19.5 -76.5t-53 -53t-76.5 -19.5h-288q-43 0 -76.5 19.5t-53 53t-19.5 76.5v2zM-150 321q0 43 19.5 76.5t53 53t76.5 19.5h288q43 0 76.5 -19.5t53 -53t19.5 -76.5v-2q0 -43 -19.5 -76.5t-53 -53t-76.5 -19.5h-288q-43 0 -76.5 19.5t-53 53t-19.5 76.5v2z" />
    <glyph glyph-name="uni022B" unicode="&#x22b;" horiz-adv-x="600" 
d="M-150 321q0 43 19.5 76.5t53 53t76.5 19.5h564q43 0 76.5 -19.5t53 -53t19.5 -76.5v-2q0 -43 -19.5 -76.5t-53 -53t-76.5 -19.5h-564q-43 0 -76.5 19.5t-53 53t-19.5 76.5v2zM-150 321q0 43 19.5 76.5t53 53t76.5 19.5h288q43 0 76.5 -19.5t53 -53t19.5 -76.5v-2
q0 -43 -19.5 -76.5t-53 -53t-76.5 -19.5h-288q-43 0 -76.5 19.5t-53 53t-19.5 76.5v2zM-150 321q0 43 19.5 76.5t53 53t76.5 19.5h288q43 0 76.5 -19.5t53 -53t19.5 -76.5v-2q0 -43 -19.5 -76.5t-53 -53t-76.5 -19.5h-288q-43 0 -76.5 19.5t-53 53t-19.5 76.5v2z" />
    <glyph glyph-name="uni0241" unicode="&#x241;" horiz-adv-x="286" 
d="M-150 321q0 43 19.5 76.5t53 53t76.5 19.5h288q43 0 76.5 -19.5t53 -53t19.5 -76.5v-2q0 -43 -19.5 -76.5t-53 -53t-76.5 -19.5h-288q-43 0 -76.5 19.5t-53 53t-19.5 76.5v2z" />
    <glyph glyph-name="uni0243" unicode="&#x243;" 
d="M-150 321q0 43 19.5 76.5t53 53t76.5 19.5h564q43 0 76.5 -19.5t53 -53t19.5 -76.5v-2q0 -43 -19.5 -76.5t-53 -53t-76.5 -19.5h-564q-43 0 -76.5 19.5t-53 53t-19.5 76.5v2z" />
    <glyph glyph-name="uni0244" unicode="&#x244;" 
d="M-150 321q0 43 19.5 76.5t53 53t76.5 19.5h564q43 0 76.5 -19.5t53 -53t19.5 -76.5v-2q0 -43 -19.5 -76.5t-53 -53t-76.5 -19.5h-564q-43 0 -76.5 19.5t-53 53t-19.5 76.5v2z" />
    <glyph glyph-name="uni024B" unicode="&#x24b;" 
d="M-150 321q0 43 19.5 76.5t53 53t76.5 19.5h564q43 0 76.5 -19.5t53 -53t19.5 -76.5v-2q0 -43 -19.5 -76.5t-53 -53t-76.5 -19.5h-564q-43 0 -76.5 19.5t-53 53t-19.5 76.5v2z" />
    <glyph glyph-name="uni024C" unicode="&#x24c;" 
d="M-150 321q0 43 19.5 76.5t53 53t76.5 19.5h564q43 0 76.5 -19.5t53 -53t19.5 -76.5v-2q0 -43 -19.5 -76.5t-53 -53t-76.5 -19.5h-564q-43 0 -76.5 19.5t-53 53t-19.5 76.5v2z" />
    <glyph glyph-name="uni0250" unicode="&#x250;" 
d="M-150 321q0 43 19.5 76.5t53 53t76.5 19.5h564q43 0 76.5 -19.5t53 -53t19.5 -76.5v-2q0 -43 -19.5 -76.5t-53 -53t-76.5 -19.5h-564q-43 0 -76.5 19.5t-53 53t-19.5 76.5v2z" />
    <glyph glyph-name="uni0253" unicode="&#x253;" 
d="M-150 321q0 43 19.5 76.5t53 53t76.5 19.5h564q43 0 76.5 -19.5t53 -53t19.5 -76.5v-2q0 -43 -19.5 -76.5t-53 -53t-76.5 -19.5h-564q-43 0 -76.5 19.5t-53 53t-19.5 76.5v2z" />
    <glyph glyph-name="uni0254" unicode="&#x254;" 
d="M-150 321q0 43 19.5 76.5t53 53t76.5 19.5h564q43 0 76.5 -19.5t53 -53t19.5 -76.5v-2q0 -43 -19.5 -76.5t-53 -53t-76.5 -19.5h-564q-43 0 -76.5 19.5t-53 53t-19.5 76.5v2z" />
    <glyph glyph-name="uni0255" unicode="&#x255;" 
d="M-150 321q0 43 19.5 76.5t53 53t76.5 19.5h564q43 0 76.5 -19.5t53 -53t19.5 -76.5v-2q0 -43 -19.5 -76.5t-53 -53t-76.5 -19.5h-564q-43 0 -76.5 19.5t-53 53t-19.5 76.5v2z" />
    <glyph glyph-name="uni0256" unicode="&#x256;" 
d="M-150 321q0 43 19.5 76.5t53 53t76.5 19.5h564q43 0 76.5 -19.5t53 -53t19.5 -76.5v-2q0 -43 -19.5 -76.5t-53 -53t-76.5 -19.5h-564q-43 0 -76.5 19.5t-53 53t-19.5 76.5v2z" />
    <glyph glyph-name="uni0257" unicode="&#x257;" 
d="M-150 321q0 43 19.5 76.5t53 53t76.5 19.5h564q43 0 76.5 -19.5t53 -53t19.5 -76.5v-2q0 -43 -19.5 -76.5t-53 -53t-76.5 -19.5h-564q-43 0 -76.5 19.5t-53 53t-19.5 76.5v2z" />
    <glyph glyph-name="uni0258" unicode="&#x258;" 
d="M-150 321q0 43 19.5 76.5t53 53t76.5 19.5h564q43 0 76.5 -19.5t53 -53t19.5 -76.5v-2q0 -43 -19.5 -76.5t-53 -53t-76.5 -19.5h-564q-43 0 -76.5 19.5t-53 53t-19.5 76.5v2z" />
    <glyph glyph-name="uni0259" unicode="&#x259;" 
d="M-150 321q0 43 19.5 76.5t53 53t76.5 19.5h564q43 0 76.5 -19.5t53 -53t19.5 -76.5v-2q0 -43 -19.5 -76.5t-53 -53t-76.5 -19.5h-564q-43 0 -76.5 19.5t-53 53t-19.5 76.5v2z" />
    <glyph glyph-name="uni025A" unicode="&#x25a;" 
d="M-150 321q0 43 19.5 76.5t53 53t76.5 19.5h564q43 0 76.5 -19.5t53 -53t19.5 -76.5v-2q0 -43 -19.5 -76.5t-53 -53t-76.5 -19.5h-564q-43 0 -76.5 19.5t-53 53t-19.5 76.5v2z" />
    <glyph glyph-name="uni025B" unicode="&#x25b;" 
d="M-150 321q0 43 19.5 76.5t53 53t76.5 19.5h564q43 0 76.5 -19.5t53 -53t19.5 -76.5v-2q0 -43 -19.5 -76.5t-53 -53t-76.5 -19.5h-564q-43 0 -76.5 19.5t-53 53t-19.5 76.5v2z" />
    <glyph glyph-name="uni025C" unicode="&#x25c;" 
d="M-150 321q0 43 19.5 76.5t53 53t76.5 19.5h564q43 0 76.5 -19.5t53 -53t19.5 -76.5v-2q0 -43 -19.5 -76.5t-53 -53t-76.5 -19.5h-564q-43 0 -76.5 19.5t-53 53t-19.5 76.5v2z" />
    <glyph glyph-name="uni025D" unicode="&#x25d;" 
d="M-150 321q0 43 19.5 76.5t53 53t76.5 19.5h564q43 0 76.5 -19.5t53 -53t19.5 -76.5v-2q0 -43 -19.5 -76.5t-53 -53t-76.5 -19.5h-564q-43 0 -76.5 19.5t-53 53t-19.5 76.5v2z" />
    <glyph glyph-name="uni025E" unicode="&#x25e;" 
d="M-150 321q0 43 19.5 76.5t53 53t76.5 19.5h564q43 0 76.5 -19.5t53 -53t19.5 -76.5v-2q0 -43 -19.5 -76.5t-53 -53t-76.5 -19.5h-564q-43 0 -76.5 19.5t-53 53t-19.5 76.5v2z" />
    <glyph glyph-name="uni025F" unicode="&#x25f;" horiz-adv-x="286" 
d="M-150 321q0 43 19.5 76.5t53 53t76.5 19.5h288q43 0 76.5 -19.5t53 -53t19.5 -76.5v-2q0 -43 -19.5 -76.5t-53 -53t-76.5 -19.5h-288q-43 0 -76.5 19.5t-53 53t-19.5 76.5v2z" />
    <glyph glyph-name="uni0260" unicode="&#x260;" 
d="M-150 321q0 43 19.5 76.5t53 53t76.5 19.5h564q43 0 76.5 -19.5t53 -53t19.5 -76.5v-2q0 -43 -19.5 -76.5t-53 -53t-76.5 -19.5h-564q-43 0 -76.5 19.5t-53 53t-19.5 76.5v2z" />
    <glyph glyph-name="uni0262" unicode="&#x262;" horiz-adv-x="286" 
d="M-150 321q0 43 19.5 76.5t53 53t76.5 19.5h288q43 0 76.5 -19.5t53 -53t19.5 -76.5v-2q0 -43 -19.5 -76.5t-53 -53t-76.5 -19.5h-288q-43 0 -76.5 19.5t-53 53t-19.5 76.5v2z" />
    <glyph glyph-name="uni0263" unicode="&#x263;" 
d="M-150 321q0 43 19.5 76.5t53 53t76.5 19.5h564q43 0 76.5 -19.5t53 -53t19.5 -76.5v-2q0 -43 -19.5 -76.5t-53 -53t-76.5 -19.5h-564q-43 0 -76.5 19.5t-53 53t-19.5 76.5v2z" />
    <glyph glyph-name="uni0264" unicode="&#x264;" 
d="M-150 321q0 43 19.5 76.5t53 53t76.5 19.5h564q43 0 76.5 -19.5t53 -53t19.5 -76.5v-2q0 -43 -19.5 -76.5t-53 -53t-76.5 -19.5h-564q-43 0 -76.5 19.5t-53 53t-19.5 76.5v2z" />
    <glyph glyph-name="uni0265" unicode="&#x265;" 
d="M-150 321q0 43 19.5 76.5t53 53t76.5 19.5h564q43 0 76.5 -19.5t53 -53t19.5 -76.5v-2q0 -43 -19.5 -76.5t-53 -53t-76.5 -19.5h-564q-43 0 -76.5 19.5t-53 53t-19.5 76.5v2z" />
    <glyph glyph-name="uni0266" unicode="&#x266;" 
d="M-150 321q0 43 19.5 76.5t53 53t76.5 19.5h564q43 0 76.5 -19.5t53 -53t19.5 -76.5v-2q0 -43 -19.5 -76.5t-53 -53t-76.5 -19.5h-564q-43 0 -76.5 19.5t-53 53t-19.5 76.5v2z" />
    <glyph glyph-name="uni0267" unicode="&#x267;" 
d="M-150 321q0 43 19.5 76.5t53 53t76.5 19.5h564q43 0 76.5 -19.5t53 -53t19.5 -76.5v-2q0 -43 -19.5 -76.5t-53 -53t-76.5 -19.5h-564q-43 0 -76.5 19.5t-53 53t-19.5 76.5v2z" />
    <glyph glyph-name="uni0268" unicode="&#x268;" horiz-adv-x="286" 
d="M-150 321q0 43 19.5 76.5t53 53t76.5 19.5h288q43 0 76.5 -19.5t53 -53t19.5 -76.5v-2q0 -43 -19.5 -76.5t-53 -53t-76.5 -19.5h-288q-43 0 -76.5 19.5t-53 53t-19.5 76.5v2z" />
    <glyph glyph-name="uni026A" unicode="&#x26a;" horiz-adv-x="286" 
d="M-150 321q0 43 19.5 76.5t53 53t76.5 19.5h288q43 0 76.5 -19.5t53 -53t19.5 -76.5v-2q0 -43 -19.5 -76.5t-53 -53t-76.5 -19.5h-288q-43 0 -76.5 19.5t-53 53t-19.5 76.5v2z" />
    <glyph glyph-name="uni026B" unicode="&#x26b;" horiz-adv-x="286" 
d="M-150 321q0 43 19.5 76.5t53 53t76.5 19.5h288q43 0 76.5 -19.5t53 -53t19.5 -76.5v-2q0 -43 -19.5 -76.5t-53 -53t-76.5 -19.5h-288q-43 0 -76.5 19.5t-53 53t-19.5 76.5v2z" />
    <glyph glyph-name="uni026C" unicode="&#x26c;" horiz-adv-x="286" 
d="M-150 321q0 43 19.5 76.5t53 53t76.5 19.5h288q43 0 76.5 -19.5t53 -53t19.5 -76.5v-2q0 -43 -19.5 -76.5t-53 -53t-76.5 -19.5h-288q-43 0 -76.5 19.5t-53 53t-19.5 76.5v2z" />
    <glyph glyph-name="uni026D" unicode="&#x26d;" horiz-adv-x="286" 
d="M-150 321q0 43 19.5 76.5t53 53t76.5 19.5h288q43 0 76.5 -19.5t53 -53t19.5 -76.5v-2q0 -43 -19.5 -76.5t-53 -53t-76.5 -19.5h-288q-43 0 -76.5 19.5t-53 53t-19.5 76.5v2z" />
    <glyph glyph-name="uni026E" unicode="&#x26e;" horiz-adv-x="286" 
d="M-150 321q0 43 19.5 76.5t53 53t76.5 19.5h288q43 0 76.5 -19.5t53 -53t19.5 -76.5v-2q0 -43 -19.5 -76.5t-53 -53t-76.5 -19.5h-288q-43 0 -76.5 19.5t-53 53t-19.5 76.5v2z" />
    <glyph glyph-name="uni026F" unicode="&#x26f;" 
d="M-150 321q0 43 19.5 76.5t53 53t76.5 19.5h564q43 0 76.5 -19.5t53 -53t19.5 -76.5v-2q0 -43 -19.5 -76.5t-53 -53t-76.5 -19.5h-564q-43 0 -76.5 19.5t-53 53t-19.5 76.5v2z" />
    <glyph glyph-name="uni0270" unicode="&#x270;" 
d="M-150 321q0 43 19.5 76.5t53 53t76.5 19.5h564q43 0 76.5 -19.5t53 -53t19.5 -76.5v-2q0 -43 -19.5 -76.5t-53 -53t-76.5 -19.5h-564q-43 0 -76.5 19.5t-53 53t-19.5 76.5v2z" />
    <glyph glyph-name="uni0271" unicode="&#x271;" 
d="M-150 321q0 43 19.5 76.5t53 53t76.5 19.5h564q43 0 76.5 -19.5t53 -53t19.5 -76.5v-2q0 -43 -19.5 -76.5t-53 -53t-76.5 -19.5h-564q-43 0 -76.5 19.5t-53 53t-19.5 76.5v2z" />
    <glyph glyph-name="uni0272" unicode="&#x272;" 
d="M-150 321q0 43 19.5 76.5t53 53t76.5 19.5h564q43 0 76.5 -19.5t53 -53t19.5 -76.5v-2q0 -43 -19.5 -76.5t-53 -53t-76.5 -19.5h-564q-43 0 -76.5 19.5t-53 53t-19.5 76.5v2z" />
    <glyph glyph-name="uni0273" unicode="&#x273;" 
d="M-150 321q0 43 19.5 76.5t53 53t76.5 19.5h564q43 0 76.5 -19.5t53 -53t19.5 -76.5v-2q0 -43 -19.5 -76.5t-53 -53t-76.5 -19.5h-564q-43 0 -76.5 19.5t-53 53t-19.5 76.5v2z" />
    <glyph glyph-name="uni0274" unicode="&#x274;" horiz-adv-x="286" 
d="M-150 321q0 43 19.5 76.5t53 53t76.5 19.5h288q43 0 76.5 -19.5t53 -53t19.5 -76.5v-2q0 -43 -19.5 -76.5t-53 -53t-76.5 -19.5h-288q-43 0 -76.5 19.5t-53 53t-19.5 76.5v2z" />
    <glyph glyph-name="uni0275" unicode="&#x275;" 
d="M-150 321q0 43 19.5 76.5t53 53t76.5 19.5h564q43 0 76.5 -19.5t53 -53t19.5 -76.5v-2q0 -43 -19.5 -76.5t-53 -53t-76.5 -19.5h-564q-43 0 -76.5 19.5t-53 53t-19.5 76.5v2z" />
    <glyph glyph-name="uni0276" unicode="&#x276;" horiz-adv-x="286" 
d="M-150 321q0 43 19.5 76.5t53 53t76.5 19.5h288q43 0 76.5 -19.5t53 -53t19.5 -76.5v-2q0 -43 -19.5 -76.5t-53 -53t-76.5 -19.5h-288q-43 0 -76.5 19.5t-53 53t-19.5 76.5v2z" />
    <glyph glyph-name="uni0279" unicode="&#x279;" horiz-adv-x="286" 
d="M-150 321q0 43 19.5 76.5t53 53t76.5 19.5h288q43 0 76.5 -19.5t53 -53t19.5 -76.5v-2q0 -43 -19.5 -76.5t-53 -53t-76.5 -19.5h-288q-43 0 -76.5 19.5t-53 53t-19.5 76.5v2z" />
    <glyph glyph-name="uni027A" unicode="&#x27a;" horiz-adv-x="286" 
d="M-150 321q0 43 19.5 76.5t53 53t76.5 19.5h288q43 0 76.5 -19.5t53 -53t19.5 -76.5v-2q0 -43 -19.5 -76.5t-53 -53t-76.5 -19.5h-288q-43 0 -76.5 19.5t-53 53t-19.5 76.5v2z" />
    <glyph glyph-name="uni027B" unicode="&#x27b;" horiz-adv-x="286" 
d="M-150 321q0 43 19.5 76.5t53 53t76.5 19.5h288q43 0 76.5 -19.5t53 -53t19.5 -76.5v-2q0 -43 -19.5 -76.5t-53 -53t-76.5 -19.5h-288q-43 0 -76.5 19.5t-53 53t-19.5 76.5v2z" />
    <glyph glyph-name="uni027D" unicode="&#x27d;" horiz-adv-x="286" 
d="M-150 321q0 43 19.5 76.5t53 53t76.5 19.5h288q43 0 76.5 -19.5t53 -53t19.5 -76.5v-2q0 -43 -19.5 -76.5t-53 -53t-76.5 -19.5h-288q-43 0 -76.5 19.5t-53 53t-19.5 76.5v2z" />
    <glyph glyph-name="uni027E" unicode="&#x27e;" horiz-adv-x="286" 
d="M-150 321q0 43 19.5 76.5t53 53t76.5 19.5h288q43 0 76.5 -19.5t53 -53t19.5 -76.5v-2q0 -43 -19.5 -76.5t-53 -53t-76.5 -19.5h-288q-43 0 -76.5 19.5t-53 53t-19.5 76.5v2z" />
    <glyph glyph-name="uni0280" unicode="&#x280;" horiz-adv-x="286" 
d="M-150 321q0 43 19.5 76.5t53 53t76.5 19.5h288q43 0 76.5 -19.5t53 -53t19.5 -76.5v-2q0 -43 -19.5 -76.5t-53 -53t-76.5 -19.5h-288q-43 0 -76.5 19.5t-53 53t-19.5 76.5v2z" />
    <glyph glyph-name="uni0281" unicode="&#x281;" horiz-adv-x="286" 
d="M-150 321q0 43 19.5 76.5t53 53t76.5 19.5h288q43 0 76.5 -19.5t53 -53t19.5 -76.5v-2q0 -43 -19.5 -76.5t-53 -53t-76.5 -19.5h-288q-43 0 -76.5 19.5t-53 53t-19.5 76.5v2z" />
    <glyph glyph-name="uni0282" unicode="&#x282;" 
d="M-150 321q0 43 19.5 76.5t53 53t76.5 19.5h564q43 0 76.5 -19.5t53 -53t19.5 -76.5v-2q0 -43 -19.5 -76.5t-53 -53t-76.5 -19.5h-564q-43 0 -76.5 19.5t-53 53t-19.5 76.5v2z" />
    <glyph glyph-name="uni0283" unicode="&#x283;" horiz-adv-x="286" 
d="M-150 321q0 43 19.5 76.5t53 53t76.5 19.5h288q43 0 76.5 -19.5t53 -53t19.5 -76.5v-2q0 -43 -19.5 -76.5t-53 -53t-76.5 -19.5h-288q-43 0 -76.5 19.5t-53 53t-19.5 76.5v2z" />
    <glyph glyph-name="uni0284" unicode="&#x284;" horiz-adv-x="286" 
d="M-150 321q0 43 19.5 76.5t53 53t76.5 19.5h288q43 0 76.5 -19.5t53 -53t19.5 -76.5v-2q0 -43 -19.5 -76.5t-53 -53t-76.5 -19.5h-288q-43 0 -76.5 19.5t-53 53t-19.5 76.5v2z" />
    <glyph glyph-name="uni0288" unicode="&#x288;" horiz-adv-x="286" 
d="M-150 321q0 43 19.5 76.5t53 53t76.5 19.5h288q43 0 76.5 -19.5t53 -53t19.5 -76.5v-2q0 -43 -19.5 -76.5t-53 -53t-76.5 -19.5h-288q-43 0 -76.5 19.5t-53 53t-19.5 76.5v2z" />
    <glyph glyph-name="uni0289" unicode="&#x289;" 
d="M-150 321q0 43 19.5 76.5t53 53t76.5 19.5h564q43 0 76.5 -19.5t53 -53t19.5 -76.5v-2q0 -43 -19.5 -76.5t-53 -53t-76.5 -19.5h-564q-43 0 -76.5 19.5t-53 53t-19.5 76.5v2z" />
    <glyph glyph-name="uni028B" unicode="&#x28b;" 
d="M-150 321q0 43 19.5 76.5t53 53t76.5 19.5h564q43 0 76.5 -19.5t53 -53t19.5 -76.5v-2q0 -43 -19.5 -76.5t-53 -53t-76.5 -19.5h-564q-43 0 -76.5 19.5t-53 53t-19.5 76.5v2z" />
    <glyph glyph-name="uni028C" unicode="&#x28c;" 
d="M-150 321q0 43 19.5 76.5t53 53t76.5 19.5h564q43 0 76.5 -19.5t53 -53t19.5 -76.5v-2q0 -43 -19.5 -76.5t-53 -53t-76.5 -19.5h-564q-43 0 -76.5 19.5t-53 53t-19.5 76.5v2z" />
    <glyph glyph-name="uni028D" unicode="&#x28d;" 
d="M-150 321q0 43 19.5 76.5t53 53t76.5 19.5h564q43 0 76.5 -19.5t53 -53t19.5 -76.5v-2q0 -43 -19.5 -76.5t-53 -53t-76.5 -19.5h-564q-43 0 -76.5 19.5t-53 53t-19.5 76.5v2z" />
    <glyph glyph-name="uni028E" unicode="&#x28e;" 
d="M-150 321q0 43 19.5 76.5t53 53t76.5 19.5h564q43 0 76.5 -19.5t53 -53t19.5 -76.5v-2q0 -43 -19.5 -76.5t-53 -53t-76.5 -19.5h-564q-43 0 -76.5 19.5t-53 53t-19.5 76.5v2z" />
    <glyph glyph-name="uni028F" unicode="&#x28f;" horiz-adv-x="286" 
d="M-150 321q0 43 19.5 76.5t53 53t76.5 19.5h288q43 0 76.5 -19.5t53 -53t19.5 -76.5v-2q0 -43 -19.5 -76.5t-53 -53t-76.5 -19.5h-288q-43 0 -76.5 19.5t-53 53t-19.5 76.5v2z" />
    <glyph glyph-name="uni0290" unicode="&#x290;" 
d="M-150 321q0 43 19.5 76.5t53 53t76.5 19.5h564q43 0 76.5 -19.5t53 -53t19.5 -76.5v-2q0 -43 -19.5 -76.5t-53 -53t-76.5 -19.5h-564q-43 0 -76.5 19.5t-53 53t-19.5 76.5v2z" />
    <glyph glyph-name="uni0291" unicode="&#x291;" 
d="M-150 321q0 43 19.5 76.5t53 53t76.5 19.5h564q43 0 76.5 -19.5t53 -53t19.5 -76.5v-2q0 -43 -19.5 -76.5t-53 -53t-76.5 -19.5h-564q-43 0 -76.5 19.5t-53 53t-19.5 76.5v2z" />
    <glyph glyph-name="uni0292" unicode="&#x292;" 
d="M-150 321q0 43 19.5 76.5t53 53t76.5 19.5h564q43 0 76.5 -19.5t53 -53t19.5 -76.5v-2q0 -43 -19.5 -76.5t-53 -53t-76.5 -19.5h-564q-43 0 -76.5 19.5t-53 53t-19.5 76.5v2z" />
    <glyph glyph-name="uni0294" unicode="&#x294;" horiz-adv-x="286" 
d="M-150 321q0 43 19.5 76.5t53 53t76.5 19.5h288q43 0 76.5 -19.5t53 -53t19.5 -76.5v-2q0 -43 -19.5 -76.5t-53 -53t-76.5 -19.5h-288q-43 0 -76.5 19.5t-53 53t-19.5 76.5v2z" />
    <glyph glyph-name="uni0295" unicode="&#x295;" horiz-adv-x="286" 
d="M-150 321q0 43 19.5 76.5t53 53t76.5 19.5h288q43 0 76.5 -19.5t53 -53t19.5 -76.5v-2q0 -43 -19.5 -76.5t-53 -53t-76.5 -19.5h-288q-43 0 -76.5 19.5t-53 53t-19.5 76.5v2z" />
    <glyph glyph-name="uni0298" unicode="&#x298;" 
d="M-150 321q0 43 19.5 76.5t53 53t76.5 19.5h564q43 0 76.5 -19.5t53 -53t19.5 -76.5v-2q0 -43 -19.5 -76.5t-53 -53t-76.5 -19.5h-564q-43 0 -76.5 19.5t-53 53t-19.5 76.5v2z" />
    <glyph glyph-name="uni0299" unicode="&#x299;" horiz-adv-x="286" 
d="M-150 321q0 43 19.5 76.5t53 53t76.5 19.5h288q43 0 76.5 -19.5t53 -53t19.5 -76.5v-2q0 -43 -19.5 -76.5t-53 -53t-76.5 -19.5h-288q-43 0 -76.5 19.5t-53 53t-19.5 76.5v2z" />
    <glyph glyph-name="uni029B" unicode="&#x29b;" horiz-adv-x="286" 
d="M-150 321q0 43 19.5 76.5t53 53t76.5 19.5h288q43 0 76.5 -19.5t53 -53t19.5 -76.5v-2q0 -43 -19.5 -76.5t-53 -53t-76.5 -19.5h-288q-43 0 -76.5 19.5t-53 53t-19.5 76.5v2z" />
    <glyph glyph-name="uni029C" unicode="&#x29c;" horiz-adv-x="286" 
d="M-150 321q0 43 19.5 76.5t53 53t76.5 19.5h288q43 0 76.5 -19.5t53 -53t19.5 -76.5v-2q0 -43 -19.5 -76.5t-53 -53t-76.5 -19.5h-288q-43 0 -76.5 19.5t-53 53t-19.5 76.5v2z" />
    <glyph glyph-name="uni029D" unicode="&#x29d;" horiz-adv-x="286" 
d="M-150 321q0 43 19.5 76.5t53 53t76.5 19.5h288q43 0 76.5 -19.5t53 -53t19.5 -76.5v-2q0 -43 -19.5 -76.5t-53 -53t-76.5 -19.5h-288q-43 0 -76.5 19.5t-53 53t-19.5 76.5v2z" />
    <glyph glyph-name="uni029F" unicode="&#x29f;" horiz-adv-x="286" 
d="M-150 321q0 43 19.5 76.5t53 53t76.5 19.5h288q43 0 76.5 -19.5t53 -53t19.5 -76.5v-2q0 -43 -19.5 -76.5t-53 -53t-76.5 -19.5h-288q-43 0 -76.5 19.5t-53 53t-19.5 76.5v2z" />
    <glyph glyph-name="uni02A1" unicode="&#x2a1;" horiz-adv-x="286" 
d="M-150 321q0 43 19.5 76.5t53 53t76.5 19.5h288q43 0 76.5 -19.5t53 -53t19.5 -76.5v-2q0 -43 -19.5 -76.5t-53 -53t-76.5 -19.5h-288q-43 0 -76.5 19.5t-53 53t-19.5 76.5v2z" />
    <glyph glyph-name="uni02A2" unicode="&#x2a2;" horiz-adv-x="286" 
d="M-150 321q0 43 19.5 76.5t53 53t76.5 19.5h288q43 0 76.5 -19.5t53 -53t19.5 -76.5v-2q0 -43 -19.5 -76.5t-53 -53t-76.5 -19.5h-288q-43 0 -76.5 19.5t-53 53t-19.5 76.5v2z" />
    <glyph glyph-name="uni02A4" unicode="&#x2a4;" 
d="M-150 321q0 43 19.5 76.5t53 53t76.5 19.5h564q43 0 76.5 -19.5t53 -53t19.5 -76.5v-2q0 -43 -19.5 -76.5t-53 -53t-76.5 -19.5h-564q-43 0 -76.5 19.5t-53 53t-19.5 76.5v2z" />
    <glyph glyph-name="uni02A7" unicode="&#x2a7;" horiz-adv-x="286" 
d="M-150 321q0 43 19.5 76.5t53 53t76.5 19.5h288q43 0 76.5 -19.5t53 -53t19.5 -76.5v-2q0 -43 -19.5 -76.5t-53 -53t-76.5 -19.5h-288q-43 0 -76.5 19.5t-53 53t-19.5 76.5v2z" />
    <glyph glyph-name="uni02BC" unicode="&#x2bc;" horiz-adv-x="286" 
d="M-150 321q0 43 19.5 76.5t53 53t76.5 19.5h288q43 0 76.5 -19.5t53 -53t19.5 -76.5v-2q0 -43 -19.5 -76.5t-53 -53t-76.5 -19.5h-288q-43 0 -76.5 19.5t-53 53t-19.5 76.5v2z" />
    <glyph glyph-name="circumflex" unicode="&#x2c6;" horiz-adv-x="286" 
d="M-150 321q0 43 19.5 76.5t53 53t76.5 19.5h288q43 0 76.5 -19.5t53 -53t19.5 -76.5v-2q0 -43 -19.5 -76.5t-53 -53t-76.5 -19.5h-288q-43 0 -76.5 19.5t-53 53t-19.5 76.5v2z" />
    <glyph glyph-name="caron" unicode="&#x2c7;" horiz-adv-x="286" 
d="M-150 321q0 43 19.5 76.5t53 53t76.5 19.5h288q43 0 76.5 -19.5t53 -53t19.5 -76.5v-2q0 -43 -19.5 -76.5t-53 -53t-76.5 -19.5h-288q-43 0 -76.5 19.5t-53 53t-19.5 76.5v2z" />
    <glyph glyph-name="breve" unicode="&#x2d8;" horiz-adv-x="286" 
d="M-150 321q0 43 19.5 76.5t53 53t76.5 19.5h288q43 0 76.5 -19.5t53 -53t19.5 -76.5v-2q0 -43 -19.5 -76.5t-53 -53t-76.5 -19.5h-288q-43 0 -76.5 19.5t-53 53t-19.5 76.5v2z" />
    <glyph glyph-name="dotaccent" unicode="&#x2d9;" horiz-adv-x="286" 
d="M-150 321q0 43 19.5 76.5t53 53t76.5 19.5h288q43 0 76.5 -19.5t53 -53t19.5 -76.5v-2q0 -43 -19.5 -76.5t-53 -53t-76.5 -19.5h-288q-43 0 -76.5 19.5t-53 53t-19.5 76.5v2z" />
    <glyph glyph-name="ring" unicode="&#x2da;" horiz-adv-x="286" 
d="M-150 321q0 43 19.5 76.5t53 53t76.5 19.5h288q43 0 76.5 -19.5t53 -53t19.5 -76.5v-2q0 -43 -19.5 -76.5t-53 -53t-76.5 -19.5h-288q-43 0 -76.5 19.5t-53 53t-19.5 76.5v2z" />
    <glyph glyph-name="ogonek" unicode="&#x2db;" horiz-adv-x="286" 
d="M-150 321q0 43 19.5 76.5t53 53t76.5 19.5h288q43 0 76.5 -19.5t53 -53t19.5 -76.5v-2q0 -43 -19.5 -76.5t-53 -53t-76.5 -19.5h-288q-43 0 -76.5 19.5t-53 53t-19.5 76.5v2z" />
    <glyph glyph-name="tilde" unicode="&#x2dc;" horiz-adv-x="286" 
d="M-150 321q0 43 19.5 76.5t53 53t76.5 19.5h288q43 0 76.5 -19.5t53 -53t19.5 -76.5v-2q0 -43 -19.5 -76.5t-53 -53t-76.5 -19.5h-288q-43 0 -76.5 19.5t-53 53t-19.5 76.5v2z" />
    <glyph glyph-name="hungarumlaut" unicode="&#x2dd;" horiz-adv-x="286" 
d="M-150 321q0 43 19.5 76.5t53 53t76.5 19.5h288q43 0 76.5 -19.5t53 -53t19.5 -76.5v-2q0 -43 -19.5 -76.5t-53 -53t-76.5 -19.5h-288q-43 0 -76.5 19.5t-53 53t-19.5 76.5v2z" />
    <glyph glyph-name="beta" unicode="&#x3b2;" 
d="M-150 321q0 43 19.5 76.5t53 53t76.5 19.5h564q43 0 76.5 -19.5t53 -53t19.5 -76.5v-2q0 -43 -19.5 -76.5t-53 -53t-76.5 -19.5h-564q-43 0 -76.5 19.5t-53 53t-19.5 76.5v2z" />
    <glyph glyph-name="theta" unicode="&#x3b8;" 
d="M-150 321q0 43 19.5 76.5t53 53t76.5 19.5h564q43 0 76.5 -19.5t53 -53t19.5 -76.5v-2q0 -43 -19.5 -76.5t-53 -53t-76.5 -19.5h-564q-43 0 -76.5 19.5t-53 53t-19.5 76.5v2z" />
    <glyph glyph-name="chi" unicode="&#x3c7;" 
d="M-150 321q0 43 19.5 76.5t53 53t76.5 19.5h564q43 0 76.5 -19.5t53 -53t19.5 -76.5v-2q0 -43 -19.5 -76.5t-53 -53t-76.5 -19.5h-564q-43 0 -76.5 19.5t-53 53t-19.5 76.5v2z" />
    <glyph glyph-name="uni0401" unicode="&#x401;" horiz-adv-x="600" 
d="M-150 321q0 43 19.5 76.5t53 53t76.5 19.5h564q43 0 76.5 -19.5t53 -53t19.5 -76.5v-2q0 -43 -19.5 -76.5t-53 -53t-76.5 -19.5h-564q-43 0 -76.5 19.5t-53 53t-19.5 76.5v2zM-150 321q0 43 19.5 76.5t53 53t76.5 19.5h288q43 0 76.5 -19.5t53 -53t19.5 -76.5v-2
q0 -43 -19.5 -76.5t-53 -53t-76.5 -19.5h-288q-43 0 -76.5 19.5t-53 53t-19.5 76.5v2z" />
    <glyph glyph-name="uni0402" unicode="&#x402;" 
d="M-150 321q0 43 19.5 76.5t53 53t76.5 19.5h564q43 0 76.5 -19.5t53 -53t19.5 -76.5v-2q0 -43 -19.5 -76.5t-53 -53t-76.5 -19.5h-564q-43 0 -76.5 19.5t-53 53t-19.5 76.5v2z" />
    <glyph glyph-name="uni0403" unicode="&#x403;" horiz-adv-x="600" 
d="M-150 321q0 43 19.5 76.5t53 53t76.5 19.5h288q43 0 76.5 -19.5t53 -53t19.5 -76.5v-2q0 -43 -19.5 -76.5t-53 -53t-76.5 -19.5h-288q-43 0 -76.5 19.5t-53 53t-19.5 76.5v2zM-150 321q0 43 19.5 76.5t53 53t76.5 19.5h288q43 0 76.5 -19.5t53 -53t19.5 -76.5v-2
q0 -43 -19.5 -76.5t-53 -53t-76.5 -19.5h-288q-43 0 -76.5 19.5t-53 53t-19.5 76.5v2z" />
    <glyph glyph-name="uni0404" unicode="&#x404;" 
d="M-150 321q0 43 19.5 76.5t53 53t76.5 19.5h564q43 0 76.5 -19.5t53 -53t19.5 -76.5v-2q0 -43 -19.5 -76.5t-53 -53t-76.5 -19.5h-564q-43 0 -76.5 19.5t-53 53t-19.5 76.5v2z" />
    <glyph glyph-name="uni0405" unicode="&#x405;" 
d="M-150 321q0 43 19.5 76.5t53 53t76.5 19.5h564q43 0 76.5 -19.5t53 -53t19.5 -76.5v-2q0 -43 -19.5 -76.5t-53 -53t-76.5 -19.5h-564q-43 0 -76.5 19.5t-53 53t-19.5 76.5v2z" />
    <glyph glyph-name="uni0406" unicode="&#x406;" horiz-adv-x="286" 
d="M-150 321q0 43 19.5 76.5t53 53t76.5 19.5h288q43 0 76.5 -19.5t53 -53t19.5 -76.5v-2q0 -43 -19.5 -76.5t-53 -53t-76.5 -19.5h-288q-43 0 -76.5 19.5t-53 53t-19.5 76.5v2z" />
    <glyph glyph-name="uni0407" unicode="&#x407;" horiz-adv-x="600" 
d="M-150 321q0 43 19.5 76.5t53 53t76.5 19.5h288q43 0 76.5 -19.5t53 -53t19.5 -76.5v-2q0 -43 -19.5 -76.5t-53 -53t-76.5 -19.5h-288q-43 0 -76.5 19.5t-53 53t-19.5 76.5v2zM-150 321q0 43 19.5 76.5t53 53t76.5 19.5h288q43 0 76.5 -19.5t53 -53t19.5 -76.5v-2
q0 -43 -19.5 -76.5t-53 -53t-76.5 -19.5h-288q-43 0 -76.5 19.5t-53 53t-19.5 76.5v2zM-150 321q0 43 19.5 76.5t53 53t76.5 19.5h564q43 0 76.5 -19.5t53 -53t19.5 -76.5v-2q0 -43 -19.5 -76.5t-53 -53t-76.5 -19.5h-564q-43 0 -76.5 19.5t-53 53t-19.5 76.5v2z" />
    <glyph glyph-name="uni0408" unicode="&#x408;" horiz-adv-x="286" 
d="M-150 321q0 43 19.5 76.5t53 53t76.5 19.5h288q43 0 76.5 -19.5t53 -53t19.5 -76.5v-2q0 -43 -19.5 -76.5t-53 -53t-76.5 -19.5h-288q-43 0 -76.5 19.5t-53 53t-19.5 76.5v2z" />
    <glyph glyph-name="uni0409" unicode="&#x409;" 
d="M-150 321q0 43 19.5 76.5t53 53t76.5 19.5h564q43 0 76.5 -19.5t53 -53t19.5 -76.5v-2q0 -43 -19.5 -76.5t-53 -53t-76.5 -19.5h-564q-43 0 -76.5 19.5t-53 53t-19.5 76.5v2z" />
    <glyph glyph-name="uni040A" unicode="&#x40a;" 
d="M-150 321q0 43 19.5 76.5t53 53t76.5 19.5h564q43 0 76.5 -19.5t53 -53t19.5 -76.5v-2q0 -43 -19.5 -76.5t-53 -53t-76.5 -19.5h-564q-43 0 -76.5 19.5t-53 53t-19.5 76.5v2z" />
    <glyph glyph-name="uni040B" unicode="&#x40b;" 
d="M-150 321q0 43 19.5 76.5t53 53t76.5 19.5h564q43 0 76.5 -19.5t53 -53t19.5 -76.5v-2q0 -43 -19.5 -76.5t-53 -53t-76.5 -19.5h-564q-43 0 -76.5 19.5t-53 53t-19.5 76.5v2z" />
    <glyph glyph-name="uni040C" unicode="&#x40c;" horiz-adv-x="600" 
d="M-150 321q0 43 19.5 76.5t53 53t76.5 19.5h564q43 0 76.5 -19.5t53 -53t19.5 -76.5v-2q0 -43 -19.5 -76.5t-53 -53t-76.5 -19.5h-564q-43 0 -76.5 19.5t-53 53t-19.5 76.5v2zM-150 321q0 43 19.5 76.5t53 53t76.5 19.5h288q43 0 76.5 -19.5t53 -53t19.5 -76.5v-2
q0 -43 -19.5 -76.5t-53 -53t-76.5 -19.5h-288q-43 0 -76.5 19.5t-53 53t-19.5 76.5v2z" />
    <glyph glyph-name="uni040E" unicode="&#x40e;" 
d="M-150 321q0 43 19.5 76.5t53 53t76.5 19.5h564q43 0 76.5 -19.5t53 -53t19.5 -76.5v-2q0 -43 -19.5 -76.5t-53 -53t-76.5 -19.5h-564q-43 0 -76.5 19.5t-53 53t-19.5 76.5v2z" />
    <glyph glyph-name="uni040F" unicode="&#x40f;" 
d="M-150 321q0 43 19.5 76.5t53 53t76.5 19.5h564q43 0 76.5 -19.5t53 -53t19.5 -76.5v-2q0 -43 -19.5 -76.5t-53 -53t-76.5 -19.5h-564q-43 0 -76.5 19.5t-53 53t-19.5 76.5v2z" />
    <glyph glyph-name="uni0410" unicode="&#x410;" 
d="M-150 321q0 43 19.5 76.5t53 53t76.5 19.5h564q43 0 76.5 -19.5t53 -53t19.5 -76.5v-2q0 -43 -19.5 -76.5t-53 -53t-76.5 -19.5h-564q-43 0 -76.5 19.5t-53 53t-19.5 76.5v2z" />
    <glyph glyph-name="uni0411" unicode="&#x411;" 
d="M-150 321q0 43 19.5 76.5t53 53t76.5 19.5h564q43 0 76.5 -19.5t53 -53t19.5 -76.5v-2q0 -43 -19.5 -76.5t-53 -53t-76.5 -19.5h-564q-43 0 -76.5 19.5t-53 53t-19.5 76.5v2z" />
    <glyph glyph-name="uni0412" unicode="&#x412;" 
d="M-150 321q0 43 19.5 76.5t53 53t76.5 19.5h564q43 0 76.5 -19.5t53 -53t19.5 -76.5v-2q0 -43 -19.5 -76.5t-53 -53t-76.5 -19.5h-564q-43 0 -76.5 19.5t-53 53t-19.5 76.5v2z" />
    <glyph glyph-name="uni0413" unicode="&#x413;" horiz-adv-x="286" 
d="M-150 321q0 43 19.5 76.5t53 53t76.5 19.5h288q43 0 76.5 -19.5t53 -53t19.5 -76.5v-2q0 -43 -19.5 -76.5t-53 -53t-76.5 -19.5h-288q-43 0 -76.5 19.5t-53 53t-19.5 76.5v2z" />
    <glyph glyph-name="uni0414" unicode="&#x414;" 
d="M-150 321q0 43 19.5 76.5t53 53t76.5 19.5h564q43 0 76.5 -19.5t53 -53t19.5 -76.5v-2q0 -43 -19.5 -76.5t-53 -53t-76.5 -19.5h-564q-43 0 -76.5 19.5t-53 53t-19.5 76.5v2z" />
    <glyph glyph-name="uni0415" unicode="&#x415;" 
d="M-150 321q0 43 19.5 76.5t53 53t76.5 19.5h564q43 0 76.5 -19.5t53 -53t19.5 -76.5v-2q0 -43 -19.5 -76.5t-53 -53t-76.5 -19.5h-564q-43 0 -76.5 19.5t-53 53t-19.5 76.5v2z" />
    <glyph glyph-name="uni0416" unicode="&#x416;" 
d="M-150 321q0 43 19.5 76.5t53 53t76.5 19.5h564q43 0 76.5 -19.5t53 -53t19.5 -76.5v-2q0 -43 -19.5 -76.5t-53 -53t-76.5 -19.5h-564q-43 0 -76.5 19.5t-53 53t-19.5 76.5v2z" />
    <glyph glyph-name="uni0417" unicode="&#x417;" 
d="M-150 321q0 43 19.5 76.5t53 53t76.5 19.5h564q43 0 76.5 -19.5t53 -53t19.5 -76.5v-2q0 -43 -19.5 -76.5t-53 -53t-76.5 -19.5h-564q-43 0 -76.5 19.5t-53 53t-19.5 76.5v2z" />
    <glyph glyph-name="uni0418" unicode="&#x418;" 
d="M-150 321q0 43 19.5 76.5t53 53t76.5 19.5h564q43 0 76.5 -19.5t53 -53t19.5 -76.5v-2q0 -43 -19.5 -76.5t-53 -53t-76.5 -19.5h-564q-43 0 -76.5 19.5t-53 53t-19.5 76.5v2z" />
    <glyph glyph-name="uni0419" unicode="&#x419;" 
d="M-150 321q0 43 19.5 76.5t53 53t76.5 19.5h564q43 0 76.5 -19.5t53 -53t19.5 -76.5v-2q0 -43 -19.5 -76.5t-53 -53t-76.5 -19.5h-564q-43 0 -76.5 19.5t-53 53t-19.5 76.5v2z" />
    <glyph glyph-name="uni041A" unicode="&#x41a;" 
d="M-150 321q0 43 19.5 76.5t53 53t76.5 19.5h564q43 0 76.5 -19.5t53 -53t19.5 -76.5v-2q0 -43 -19.5 -76.5t-53 -53t-76.5 -19.5h-564q-43 0 -76.5 19.5t-53 53t-19.5 76.5v2z" />
    <glyph glyph-name="uni041B" unicode="&#x41b;" 
d="M-150 321q0 43 19.5 76.5t53 53t76.5 19.5h564q43 0 76.5 -19.5t53 -53t19.5 -76.5v-2q0 -43 -19.5 -76.5t-53 -53t-76.5 -19.5h-564q-43 0 -76.5 19.5t-53 53t-19.5 76.5v2z" />
    <glyph glyph-name="uni041C" unicode="&#x41c;" 
d="M-150 321q0 43 19.5 76.5t53 53t76.5 19.5h564q43 0 76.5 -19.5t53 -53t19.5 -76.5v-2q0 -43 -19.5 -76.5t-53 -53t-76.5 -19.5h-564q-43 0 -76.5 19.5t-53 53t-19.5 76.5v2z" />
    <glyph glyph-name="uni041D" unicode="&#x41d;" 
d="M-150 321q0 43 19.5 76.5t53 53t76.5 19.5h564q43 0 76.5 -19.5t53 -53t19.5 -76.5v-2q0 -43 -19.5 -76.5t-53 -53t-76.5 -19.5h-564q-43 0 -76.5 19.5t-53 53t-19.5 76.5v2z" />
    <glyph glyph-name="uni041E" unicode="&#x41e;" 
d="M-150 321q0 43 19.5 76.5t53 53t76.5 19.5h564q43 0 76.5 -19.5t53 -53t19.5 -76.5v-2q0 -43 -19.5 -76.5t-53 -53t-76.5 -19.5h-564q-43 0 -76.5 19.5t-53 53t-19.5 76.5v2z" />
    <glyph glyph-name="uni041F" unicode="&#x41f;" 
d="M-150 321q0 43 19.5 76.5t53 53t76.5 19.5h564q43 0 76.5 -19.5t53 -53t19.5 -76.5v-2q0 -43 -19.5 -76.5t-53 -53t-76.5 -19.5h-564q-43 0 -76.5 19.5t-53 53t-19.5 76.5v2z" />
    <glyph glyph-name="uni0420" unicode="&#x420;" 
d="M-150 321q0 43 19.5 76.5t53 53t76.5 19.5h564q43 0 76.5 -19.5t53 -53t19.5 -76.5v-2q0 -43 -19.5 -76.5t-53 -53t-76.5 -19.5h-564q-43 0 -76.5 19.5t-53 53t-19.5 76.5v2z" />
    <glyph glyph-name="uni0421" unicode="&#x421;" 
d="M-150 321q0 43 19.5 76.5t53 53t76.5 19.5h564q43 0 76.5 -19.5t53 -53t19.5 -76.5v-2q0 -43 -19.5 -76.5t-53 -53t-76.5 -19.5h-564q-43 0 -76.5 19.5t-53 53t-19.5 76.5v2z" />
    <glyph glyph-name="uni0422" unicode="&#x422;" horiz-adv-x="286" 
d="M-150 321q0 43 19.5 76.5t53 53t76.5 19.5h288q43 0 76.5 -19.5t53 -53t19.5 -76.5v-2q0 -43 -19.5 -76.5t-53 -53t-76.5 -19.5h-288q-43 0 -76.5 19.5t-53 53t-19.5 76.5v2z" />
    <glyph glyph-name="uni0423" unicode="&#x423;" 
d="M-150 321q0 43 19.5 76.5t53 53t76.5 19.5h564q43 0 76.5 -19.5t53 -53t19.5 -76.5v-2q0 -43 -19.5 -76.5t-53 -53t-76.5 -19.5h-564q-43 0 -76.5 19.5t-53 53t-19.5 76.5v2z" />
    <glyph glyph-name="uni0424" unicode="&#x424;" 
d="M-150 321q0 43 19.5 76.5t53 53t76.5 19.5h564q43 0 76.5 -19.5t53 -53t19.5 -76.5v-2q0 -43 -19.5 -76.5t-53 -53t-76.5 -19.5h-564q-43 0 -76.5 19.5t-53 53t-19.5 76.5v2z" />
    <glyph glyph-name="uni0425" unicode="&#x425;" 
d="M-150 321q0 43 19.5 76.5t53 53t76.5 19.5h564q43 0 76.5 -19.5t53 -53t19.5 -76.5v-2q0 -43 -19.5 -76.5t-53 -53t-76.5 -19.5h-564q-43 0 -76.5 19.5t-53 53t-19.5 76.5v2z" />
    <glyph glyph-name="uni0426" unicode="&#x426;" 
d="M-150 321q0 43 19.5 76.5t53 53t76.5 19.5h564q43 0 76.5 -19.5t53 -53t19.5 -76.5v-2q0 -43 -19.5 -76.5t-53 -53t-76.5 -19.5h-564q-43 0 -76.5 19.5t-53 53t-19.5 76.5v2z" />
    <glyph glyph-name="uni0427" unicode="&#x427;" 
d="M-150 321q0 43 19.5 76.5t53 53t76.5 19.5h564q43 0 76.5 -19.5t53 -53t19.5 -76.5v-2q0 -43 -19.5 -76.5t-53 -53t-76.5 -19.5h-564q-43 0 -76.5 19.5t-53 53t-19.5 76.5v2z" />
    <glyph glyph-name="uni0428" unicode="&#x428;" 
d="M-150 321q0 43 19.5 76.5t53 53t76.5 19.5h564q43 0 76.5 -19.5t53 -53t19.5 -76.5v-2q0 -43 -19.5 -76.5t-53 -53t-76.5 -19.5h-564q-43 0 -76.5 19.5t-53 53t-19.5 76.5v2z" />
    <glyph glyph-name="uni0429" unicode="&#x429;" 
d="M-150 321q0 43 19.5 76.5t53 53t76.5 19.5h564q43 0 76.5 -19.5t53 -53t19.5 -76.5v-2q0 -43 -19.5 -76.5t-53 -53t-76.5 -19.5h-564q-43 0 -76.5 19.5t-53 53t-19.5 76.5v2z" />
    <glyph glyph-name="uni042A" unicode="&#x42a;" 
d="M-150 321q0 43 19.5 76.5t53 53t76.5 19.5h564q43 0 76.5 -19.5t53 -53t19.5 -76.5v-2q0 -43 -19.5 -76.5t-53 -53t-76.5 -19.5h-564q-43 0 -76.5 19.5t-53 53t-19.5 76.5v2z" />
    <glyph glyph-name="uni042B" unicode="&#x42b;" 
d="M-150 321q0 43 19.5 76.5t53 53t76.5 19.5h564q43 0 76.5 -19.5t53 -53t19.5 -76.5v-2q0 -43 -19.5 -76.5t-53 -53t-76.5 -19.5h-564q-43 0 -76.5 19.5t-53 53t-19.5 76.5v2z" />
    <glyph glyph-name="uni042C" unicode="&#x42c;" 
d="M-150 321q0 43 19.5 76.5t53 53t76.5 19.5h564q43 0 76.5 -19.5t53 -53t19.5 -76.5v-2q0 -43 -19.5 -76.5t-53 -53t-76.5 -19.5h-564q-43 0 -76.5 19.5t-53 53t-19.5 76.5v2z" />
    <glyph glyph-name="uni042D" unicode="&#x42d;" 
d="M-150 321q0 43 19.5 76.5t53 53t76.5 19.5h564q43 0 76.5 -19.5t53 -53t19.5 -76.5v-2q0 -43 -19.5 -76.5t-53 -53t-76.5 -19.5h-564q-43 0 -76.5 19.5t-53 53t-19.5 76.5v2z" />
    <glyph glyph-name="uni042E" unicode="&#x42e;" 
d="M-150 321q0 43 19.5 76.5t53 53t76.5 19.5h564q43 0 76.5 -19.5t53 -53t19.5 -76.5v-2q0 -43 -19.5 -76.5t-53 -53t-76.5 -19.5h-564q-43 0 -76.5 19.5t-53 53t-19.5 76.5v2z" />
    <glyph glyph-name="uni042F" unicode="&#x42f;" 
d="M-150 321q0 43 19.5 76.5t53 53t76.5 19.5h564q43 0 76.5 -19.5t53 -53t19.5 -76.5v-2q0 -43 -19.5 -76.5t-53 -53t-76.5 -19.5h-564q-43 0 -76.5 19.5t-53 53t-19.5 76.5v2z" />
    <glyph glyph-name="uni0430" unicode="&#x430;" 
d="M-150 321q0 43 19.5 76.5t53 53t76.5 19.5h564q43 0 76.5 -19.5t53 -53t19.5 -76.5v-2q0 -43 -19.5 -76.5t-53 -53t-76.5 -19.5h-564q-43 0 -76.5 19.5t-53 53t-19.5 76.5v2z" />
    <glyph glyph-name="uni0431" unicode="&#x431;" 
d="M-150 321q0 43 19.5 76.5t53 53t76.5 19.5h564q43 0 76.5 -19.5t53 -53t19.5 -76.5v-2q0 -43 -19.5 -76.5t-53 -53t-76.5 -19.5h-564q-43 0 -76.5 19.5t-53 53t-19.5 76.5v2z" />
    <glyph glyph-name="uni0432" unicode="&#x432;" 
d="M-150 321q0 43 19.5 76.5t53 53t76.5 19.5h564q43 0 76.5 -19.5t53 -53t19.5 -76.5v-2q0 -43 -19.5 -76.5t-53 -53t-76.5 -19.5h-564q-43 0 -76.5 19.5t-53 53t-19.5 76.5v2z" />
    <glyph glyph-name="uni0433" unicode="&#x433;" horiz-adv-x="286" 
d="M-150 321q0 43 19.5 76.5t53 53t76.5 19.5h288q43 0 76.5 -19.5t53 -53t19.5 -76.5v-2q0 -43 -19.5 -76.5t-53 -53t-76.5 -19.5h-288q-43 0 -76.5 19.5t-53 53t-19.5 76.5v2z" />
    <glyph glyph-name="uni0434" unicode="&#x434;" 
d="M-150 321q0 43 19.5 76.5t53 53t76.5 19.5h564q43 0 76.5 -19.5t53 -53t19.5 -76.5v-2q0 -43 -19.5 -76.5t-53 -53t-76.5 -19.5h-564q-43 0 -76.5 19.5t-53 53t-19.5 76.5v2z" />
    <glyph glyph-name="uni0435" unicode="&#x435;" 
d="M-150 321q0 43 19.5 76.5t53 53t76.5 19.5h564q43 0 76.5 -19.5t53 -53t19.5 -76.5v-2q0 -43 -19.5 -76.5t-53 -53t-76.5 -19.5h-564q-43 0 -76.5 19.5t-53 53t-19.5 76.5v2z" />
    <glyph glyph-name="uni0436" unicode="&#x436;" 
d="M-150 321q0 43 19.5 76.5t53 53t76.5 19.5h564q43 0 76.5 -19.5t53 -53t19.5 -76.5v-2q0 -43 -19.5 -76.5t-53 -53t-76.5 -19.5h-564q-43 0 -76.5 19.5t-53 53t-19.5 76.5v2z" />
    <glyph glyph-name="uni0437" unicode="&#x437;" 
d="M-150 321q0 43 19.5 76.5t53 53t76.5 19.5h564q43 0 76.5 -19.5t53 -53t19.5 -76.5v-2q0 -43 -19.5 -76.5t-53 -53t-76.5 -19.5h-564q-43 0 -76.5 19.5t-53 53t-19.5 76.5v2z" />
    <glyph glyph-name="uni0438" unicode="&#x438;" 
d="M-150 321q0 43 19.5 76.5t53 53t76.5 19.5h564q43 0 76.5 -19.5t53 -53t19.5 -76.5v-2q0 -43 -19.5 -76.5t-53 -53t-76.5 -19.5h-564q-43 0 -76.5 19.5t-53 53t-19.5 76.5v2z" />
    <glyph glyph-name="uni0439" unicode="&#x439;" 
d="M-150 321q0 43 19.5 76.5t53 53t76.5 19.5h564q43 0 76.5 -19.5t53 -53t19.5 -76.5v-2q0 -43 -19.5 -76.5t-53 -53t-76.5 -19.5h-564q-43 0 -76.5 19.5t-53 53t-19.5 76.5v2z" />
    <glyph glyph-name="uni043A" unicode="&#x43a;" 
d="M-150 321q0 43 19.5 76.5t53 53t76.5 19.5h564q43 0 76.5 -19.5t53 -53t19.5 -76.5v-2q0 -43 -19.5 -76.5t-53 -53t-76.5 -19.5h-564q-43 0 -76.5 19.5t-53 53t-19.5 76.5v2z" />
    <glyph glyph-name="uni043B" unicode="&#x43b;" 
d="M-150 321q0 43 19.5 76.5t53 53t76.5 19.5h564q43 0 76.5 -19.5t53 -53t19.5 -76.5v-2q0 -43 -19.5 -76.5t-53 -53t-76.5 -19.5h-564q-43 0 -76.5 19.5t-53 53t-19.5 76.5v2z" />
    <glyph glyph-name="uni043C" unicode="&#x43c;" 
d="M-150 321q0 43 19.5 76.5t53 53t76.5 19.5h564q43 0 76.5 -19.5t53 -53t19.5 -76.5v-2q0 -43 -19.5 -76.5t-53 -53t-76.5 -19.5h-564q-43 0 -76.5 19.5t-53 53t-19.5 76.5v2z" />
    <glyph glyph-name="uni043D" unicode="&#x43d;" 
d="M-150 321q0 43 19.5 76.5t53 53t76.5 19.5h564q43 0 76.5 -19.5t53 -53t19.5 -76.5v-2q0 -43 -19.5 -76.5t-53 -53t-76.5 -19.5h-564q-43 0 -76.5 19.5t-53 53t-19.5 76.5v2z" />
    <glyph glyph-name="uni043E" unicode="&#x43e;" 
d="M-150 321q0 43 19.5 76.5t53 53t76.5 19.5h564q43 0 76.5 -19.5t53 -53t19.5 -76.5v-2q0 -43 -19.5 -76.5t-53 -53t-76.5 -19.5h-564q-43 0 -76.5 19.5t-53 53t-19.5 76.5v2z" />
    <glyph glyph-name="uni043F" unicode="&#x43f;" 
d="M-150 321q0 43 19.5 76.5t53 53t76.5 19.5h564q43 0 76.5 -19.5t53 -53t19.5 -76.5v-2q0 -43 -19.5 -76.5t-53 -53t-76.5 -19.5h-564q-43 0 -76.5 19.5t-53 53t-19.5 76.5v2z" />
    <glyph glyph-name="uni0440" unicode="&#x440;" 
d="M-150 321q0 43 19.5 76.5t53 53t76.5 19.5h564q43 0 76.5 -19.5t53 -53t19.5 -76.5v-2q0 -43 -19.5 -76.5t-53 -53t-76.5 -19.5h-564q-43 0 -76.5 19.5t-53 53t-19.5 76.5v2z" />
    <glyph glyph-name="uni0441" unicode="&#x441;" 
d="M-150 321q0 43 19.5 76.5t53 53t76.5 19.5h564q43 0 76.5 -19.5t53 -53t19.5 -76.5v-2q0 -43 -19.5 -76.5t-53 -53t-76.5 -19.5h-564q-43 0 -76.5 19.5t-53 53t-19.5 76.5v2z" />
    <glyph glyph-name="uni0442" unicode="&#x442;" horiz-adv-x="286" 
d="M-150 321q0 43 19.5 76.5t53 53t76.5 19.5h288q43 0 76.5 -19.5t53 -53t19.5 -76.5v-2q0 -43 -19.5 -76.5t-53 -53t-76.5 -19.5h-288q-43 0 -76.5 19.5t-53 53t-19.5 76.5v2z" />
    <glyph glyph-name="uni0443" unicode="&#x443;" 
d="M-150 321q0 43 19.5 76.5t53 53t76.5 19.5h564q43 0 76.5 -19.5t53 -53t19.5 -76.5v-2q0 -43 -19.5 -76.5t-53 -53t-76.5 -19.5h-564q-43 0 -76.5 19.5t-53 53t-19.5 76.5v2z" />
    <glyph glyph-name="uni0444" unicode="&#x444;" 
d="M-150 321q0 43 19.5 76.5t53 53t76.5 19.5h564q43 0 76.5 -19.5t53 -53t19.5 -76.5v-2q0 -43 -19.5 -76.5t-53 -53t-76.5 -19.5h-564q-43 0 -76.5 19.5t-53 53t-19.5 76.5v2z" />
    <glyph glyph-name="uni0445" unicode="&#x445;" 
d="M-150 321q0 43 19.5 76.5t53 53t76.5 19.5h564q43 0 76.5 -19.5t53 -53t19.5 -76.5v-2q0 -43 -19.5 -76.5t-53 -53t-76.5 -19.5h-564q-43 0 -76.5 19.5t-53 53t-19.5 76.5v2z" />
    <glyph glyph-name="uni0446" unicode="&#x446;" 
d="M-150 321q0 43 19.5 76.5t53 53t76.5 19.5h564q43 0 76.5 -19.5t53 -53t19.5 -76.5v-2q0 -43 -19.5 -76.5t-53 -53t-76.5 -19.5h-564q-43 0 -76.5 19.5t-53 53t-19.5 76.5v2z" />
    <glyph glyph-name="uni0447" unicode="&#x447;" 
d="M-150 321q0 43 19.5 76.5t53 53t76.5 19.5h564q43 0 76.5 -19.5t53 -53t19.5 -76.5v-2q0 -43 -19.5 -76.5t-53 -53t-76.5 -19.5h-564q-43 0 -76.5 19.5t-53 53t-19.5 76.5v2z" />
    <glyph glyph-name="uni0448" unicode="&#x448;" 
d="M-150 321q0 43 19.5 76.5t53 53t76.5 19.5h564q43 0 76.5 -19.5t53 -53t19.5 -76.5v-2q0 -43 -19.5 -76.5t-53 -53t-76.5 -19.5h-564q-43 0 -76.5 19.5t-53 53t-19.5 76.5v2z" />
    <glyph glyph-name="uni0449" unicode="&#x449;" 
d="M-150 321q0 43 19.5 76.5t53 53t76.5 19.5h564q43 0 76.5 -19.5t53 -53t19.5 -76.5v-2q0 -43 -19.5 -76.5t-53 -53t-76.5 -19.5h-564q-43 0 -76.5 19.5t-53 53t-19.5 76.5v2z" />
    <glyph glyph-name="uni044A" unicode="&#x44a;" 
d="M-150 321q0 43 19.5 76.5t53 53t76.5 19.5h564q43 0 76.5 -19.5t53 -53t19.5 -76.5v-2q0 -43 -19.5 -76.5t-53 -53t-76.5 -19.5h-564q-43 0 -76.5 19.5t-53 53t-19.5 76.5v2z" />
    <glyph glyph-name="uni044B" unicode="&#x44b;" 
d="M-150 321q0 43 19.5 76.5t53 53t76.5 19.5h564q43 0 76.5 -19.5t53 -53t19.5 -76.5v-2q0 -43 -19.5 -76.5t-53 -53t-76.5 -19.5h-564q-43 0 -76.5 19.5t-53 53t-19.5 76.5v2z" />
    <glyph glyph-name="uni044C" unicode="&#x44c;" 
d="M-150 321q0 43 19.5 76.5t53 53t76.5 19.5h564q43 0 76.5 -19.5t53 -53t19.5 -76.5v-2q0 -43 -19.5 -76.5t-53 -53t-76.5 -19.5h-564q-43 0 -76.5 19.5t-53 53t-19.5 76.5v2z" />
    <glyph glyph-name="uni044D" unicode="&#x44d;" 
d="M-150 321q0 43 19.5 76.5t53 53t76.5 19.5h564q43 0 76.5 -19.5t53 -53t19.5 -76.5v-2q0 -43 -19.5 -76.5t-53 -53t-76.5 -19.5h-564q-43 0 -76.5 19.5t-53 53t-19.5 76.5v2z" />
    <glyph glyph-name="uni044E" unicode="&#x44e;" 
d="M-150 321q0 43 19.5 76.5t53 53t76.5 19.5h564q43 0 76.5 -19.5t53 -53t19.5 -76.5v-2q0 -43 -19.5 -76.5t-53 -53t-76.5 -19.5h-564q-43 0 -76.5 19.5t-53 53t-19.5 76.5v2z" />
    <glyph glyph-name="uni044F" unicode="&#x44f;" 
d="M-150 321q0 43 19.5 76.5t53 53t76.5 19.5h564q43 0 76.5 -19.5t53 -53t19.5 -76.5v-2q0 -43 -19.5 -76.5t-53 -53t-76.5 -19.5h-564q-43 0 -76.5 19.5t-53 53t-19.5 76.5v2z" />
    <glyph glyph-name="uni0451" unicode="&#x451;" horiz-adv-x="600" 
d="M-150 321q0 43 19.5 76.5t53 53t76.5 19.5h564q43 0 76.5 -19.5t53 -53t19.5 -76.5v-2q0 -43 -19.5 -76.5t-53 -53t-76.5 -19.5h-564q-43 0 -76.5 19.5t-53 53t-19.5 76.5v2zM-150 321q0 43 19.5 76.5t53 53t76.5 19.5h288q43 0 76.5 -19.5t53 -53t19.5 -76.5v-2
q0 -43 -19.5 -76.5t-53 -53t-76.5 -19.5h-288q-43 0 -76.5 19.5t-53 53t-19.5 76.5v2z" />
    <glyph glyph-name="uni0452" unicode="&#x452;" 
d="M-150 321q0 43 19.5 76.5t53 53t76.5 19.5h564q43 0 76.5 -19.5t53 -53t19.5 -76.5v-2q0 -43 -19.5 -76.5t-53 -53t-76.5 -19.5h-564q-43 0 -76.5 19.5t-53 53t-19.5 76.5v2z" />
    <glyph glyph-name="uni0453" unicode="&#x453;" horiz-adv-x="600" 
d="M-150 321q0 43 19.5 76.5t53 53t76.5 19.5h288q43 0 76.5 -19.5t53 -53t19.5 -76.5v-2q0 -43 -19.5 -76.5t-53 -53t-76.5 -19.5h-288q-43 0 -76.5 19.5t-53 53t-19.5 76.5v2zM-150 321q0 43 19.5 76.5t53 53t76.5 19.5h288q43 0 76.5 -19.5t53 -53t19.5 -76.5v-2
q0 -43 -19.5 -76.5t-53 -53t-76.5 -19.5h-288q-43 0 -76.5 19.5t-53 53t-19.5 76.5v2z" />
    <glyph glyph-name="uni0454" unicode="&#x454;" 
d="M-150 321q0 43 19.5 76.5t53 53t76.5 19.5h564q43 0 76.5 -19.5t53 -53t19.5 -76.5v-2q0 -43 -19.5 -76.5t-53 -53t-76.5 -19.5h-564q-43 0 -76.5 19.5t-53 53t-19.5 76.5v2z" />
    <glyph glyph-name="uni0455" unicode="&#x455;" 
d="M-150 321q0 43 19.5 76.5t53 53t76.5 19.5h564q43 0 76.5 -19.5t53 -53t19.5 -76.5v-2q0 -43 -19.5 -76.5t-53 -53t-76.5 -19.5h-564q-43 0 -76.5 19.5t-53 53t-19.5 76.5v2z" />
    <glyph glyph-name="uni0456" unicode="&#x456;" horiz-adv-x="286" 
d="M-150 321q0 43 19.5 76.5t53 53t76.5 19.5h288q43 0 76.5 -19.5t53 -53t19.5 -76.5v-2q0 -43 -19.5 -76.5t-53 -53t-76.5 -19.5h-288q-43 0 -76.5 19.5t-53 53t-19.5 76.5v2z" />
    <glyph glyph-name="uni0457" unicode="&#x457;" horiz-adv-x="286" 
d="M-150 321q0 43 19.5 76.5t53 53t76.5 19.5h288q43 0 76.5 -19.5t53 -53t19.5 -76.5v-2q0 -43 -19.5 -76.5t-53 -53t-76.5 -19.5h-288q-43 0 -76.5 19.5t-53 53t-19.5 76.5v2z" />
    <glyph glyph-name="uni0458" unicode="&#x458;" horiz-adv-x="286" 
d="M-150 321q0 43 19.5 76.5t53 53t76.5 19.5h288q43 0 76.5 -19.5t53 -53t19.5 -76.5v-2q0 -43 -19.5 -76.5t-53 -53t-76.5 -19.5h-288q-43 0 -76.5 19.5t-53 53t-19.5 76.5v2z" />
    <glyph glyph-name="uni0459" unicode="&#x459;" 
d="M-150 321q0 43 19.5 76.5t53 53t76.5 19.5h564q43 0 76.5 -19.5t53 -53t19.5 -76.5v-2q0 -43 -19.5 -76.5t-53 -53t-76.5 -19.5h-564q-43 0 -76.5 19.5t-53 53t-19.5 76.5v2z" />
    <glyph glyph-name="uni045A" unicode="&#x45a;" 
d="M-150 321q0 43 19.5 76.5t53 53t76.5 19.5h564q43 0 76.5 -19.5t53 -53t19.5 -76.5v-2q0 -43 -19.5 -76.5t-53 -53t-76.5 -19.5h-564q-43 0 -76.5 19.5t-53 53t-19.5 76.5v2z" />
    <glyph glyph-name="uni045B" unicode="&#x45b;" 
d="M-150 321q0 43 19.5 76.5t53 53t76.5 19.5h564q43 0 76.5 -19.5t53 -53t19.5 -76.5v-2q0 -43 -19.5 -76.5t-53 -53t-76.5 -19.5h-564q-43 0 -76.5 19.5t-53 53t-19.5 76.5v2z" />
    <glyph glyph-name="uni045C" unicode="&#x45c;" horiz-adv-x="600" 
d="M-150 321q0 43 19.5 76.5t53 53t76.5 19.5h564q43 0 76.5 -19.5t53 -53t19.5 -76.5v-2q0 -43 -19.5 -76.5t-53 -53t-76.5 -19.5h-564q-43 0 -76.5 19.5t-53 53t-19.5 76.5v2zM-150 321q0 43 19.5 76.5t53 53t76.5 19.5h288q43 0 76.5 -19.5t53 -53t19.5 -76.5v-2
q0 -43 -19.5 -76.5t-53 -53t-76.5 -19.5h-288q-43 0 -76.5 19.5t-53 53t-19.5 76.5v2z" />
    <glyph glyph-name="uni045E" unicode="&#x45e;" 
d="M-150 321q0 43 19.5 76.5t53 53t76.5 19.5h564q43 0 76.5 -19.5t53 -53t19.5 -76.5v-2q0 -43 -19.5 -76.5t-53 -53t-76.5 -19.5h-564q-43 0 -76.5 19.5t-53 53t-19.5 76.5v2z" />
    <glyph glyph-name="uni045F" unicode="&#x45f;" 
d="M-150 321q0 43 19.5 76.5t53 53t76.5 19.5h564q43 0 76.5 -19.5t53 -53t19.5 -76.5v-2q0 -43 -19.5 -76.5t-53 -53t-76.5 -19.5h-564q-43 0 -76.5 19.5t-53 53t-19.5 76.5v2z" />
    <glyph glyph-name="uni0462" unicode="&#x462;" 
d="M-150 321q0 43 19.5 76.5t53 53t76.5 19.5h564q43 0 76.5 -19.5t53 -53t19.5 -76.5v-2q0 -43 -19.5 -76.5t-53 -53t-76.5 -19.5h-564q-43 0 -76.5 19.5t-53 53t-19.5 76.5v2z" />
    <glyph glyph-name="uni0463" unicode="&#x463;" 
d="M-150 321q0 43 19.5 76.5t53 53t76.5 19.5h564q43 0 76.5 -19.5t53 -53t19.5 -76.5v-2q0 -43 -19.5 -76.5t-53 -53t-76.5 -19.5h-564q-43 0 -76.5 19.5t-53 53t-19.5 76.5v2z" />
    <glyph glyph-name="uni0472" unicode="&#x472;" 
d="M-150 321q0 43 19.5 76.5t53 53t76.5 19.5h564q43 0 76.5 -19.5t53 -53t19.5 -76.5v-2q0 -43 -19.5 -76.5t-53 -53t-76.5 -19.5h-564q-43 0 -76.5 19.5t-53 53t-19.5 76.5v2z" />
    <glyph glyph-name="uni0473" unicode="&#x473;" 
d="M-150 321q0 43 19.5 76.5t53 53t76.5 19.5h564q43 0 76.5 -19.5t53 -53t19.5 -76.5v-2q0 -43 -19.5 -76.5t-53 -53t-76.5 -19.5h-564q-43 0 -76.5 19.5t-53 53t-19.5 76.5v2z" />
    <glyph glyph-name="uni0474" unicode="&#x474;" 
d="M-150 321q0 43 19.5 76.5t53 53t76.5 19.5h564q43 0 76.5 -19.5t53 -53t19.5 -76.5v-2q0 -43 -19.5 -76.5t-53 -53t-76.5 -19.5h-564q-43 0 -76.5 19.5t-53 53t-19.5 76.5v2z" />
    <glyph glyph-name="uni0475" unicode="&#x475;" 
d="M-150 321q0 43 19.5 76.5t53 53t76.5 19.5h564q43 0 76.5 -19.5t53 -53t19.5 -76.5v-2q0 -43 -19.5 -76.5t-53 -53t-76.5 -19.5h-564q-43 0 -76.5 19.5t-53 53t-19.5 76.5v2z" />
    <glyph glyph-name="uni0490" unicode="&#x490;" horiz-adv-x="286" 
d="M-150 321q0 43 19.5 76.5t53 53t76.5 19.5h288q43 0 76.5 -19.5t53 -53t19.5 -76.5v-2q0 -43 -19.5 -76.5t-53 -53t-76.5 -19.5h-288q-43 0 -76.5 19.5t-53 53t-19.5 76.5v2z" />
    <glyph glyph-name="uni0491" unicode="&#x491;" horiz-adv-x="286" 
d="M-150 321q0 43 19.5 76.5t53 53t76.5 19.5h288q43 0 76.5 -19.5t53 -53t19.5 -76.5v-2q0 -43 -19.5 -76.5t-53 -53t-76.5 -19.5h-288q-43 0 -76.5 19.5t-53 53t-19.5 76.5v2z" />
    <glyph glyph-name="uni0492" unicode="&#x492;" 
d="M-150 321q0 43 19.5 76.5t53 53t76.5 19.5h564q43 0 76.5 -19.5t53 -53t19.5 -76.5v-2q0 -43 -19.5 -76.5t-53 -53t-76.5 -19.5h-564q-43 0 -76.5 19.5t-53 53t-19.5 76.5v2z" />
    <glyph glyph-name="uni0493" unicode="&#x493;" 
d="M-150 321q0 43 19.5 76.5t53 53t76.5 19.5h564q43 0 76.5 -19.5t53 -53t19.5 -76.5v-2q0 -43 -19.5 -76.5t-53 -53t-76.5 -19.5h-564q-43 0 -76.5 19.5t-53 53t-19.5 76.5v2z" />
    <glyph glyph-name="uni0496" unicode="&#x496;" 
d="M-150 321q0 43 19.5 76.5t53 53t76.5 19.5h564q43 0 76.5 -19.5t53 -53t19.5 -76.5v-2q0 -43 -19.5 -76.5t-53 -53t-76.5 -19.5h-564q-43 0 -76.5 19.5t-53 53t-19.5 76.5v2z" />
    <glyph glyph-name="uni0497" unicode="&#x497;" 
d="M-150 321q0 43 19.5 76.5t53 53t76.5 19.5h564q43 0 76.5 -19.5t53 -53t19.5 -76.5v-2q0 -43 -19.5 -76.5t-53 -53t-76.5 -19.5h-564q-43 0 -76.5 19.5t-53 53t-19.5 76.5v2z" />
    <glyph glyph-name="uni049A" unicode="&#x49a;" 
d="M-150 321q0 43 19.5 76.5t53 53t76.5 19.5h564q43 0 76.5 -19.5t53 -53t19.5 -76.5v-2q0 -43 -19.5 -76.5t-53 -53t-76.5 -19.5h-564q-43 0 -76.5 19.5t-53 53t-19.5 76.5v2z" />
    <glyph glyph-name="uni049B" unicode="&#x49b;" 
d="M-150 321q0 43 19.5 76.5t53 53t76.5 19.5h564q43 0 76.5 -19.5t53 -53t19.5 -76.5v-2q0 -43 -19.5 -76.5t-53 -53t-76.5 -19.5h-564q-43 0 -76.5 19.5t-53 53t-19.5 76.5v2z" />
    <glyph glyph-name="uni04A2" unicode="&#x4a2;" 
d="M-150 321q0 43 19.5 76.5t53 53t76.5 19.5h564q43 0 76.5 -19.5t53 -53t19.5 -76.5v-2q0 -43 -19.5 -76.5t-53 -53t-76.5 -19.5h-564q-43 0 -76.5 19.5t-53 53t-19.5 76.5v2z" />
    <glyph glyph-name="uni04A3" unicode="&#x4a3;" 
d="M-150 321q0 43 19.5 76.5t53 53t76.5 19.5h564q43 0 76.5 -19.5t53 -53t19.5 -76.5v-2q0 -43 -19.5 -76.5t-53 -53t-76.5 -19.5h-564q-43 0 -76.5 19.5t-53 53t-19.5 76.5v2z" />
    <glyph glyph-name="Ustraitcy" unicode="&#x4ae;" 
d="M-150 321q0 43 19.5 76.5t53 53t76.5 19.5h564q43 0 76.5 -19.5t53 -53t19.5 -76.5v-2q0 -43 -19.5 -76.5t-53 -53t-76.5 -19.5h-564q-43 0 -76.5 19.5t-53 53t-19.5 76.5v2z" />
    <glyph glyph-name="ustraitcy" unicode="&#x4af;" 
d="M-150 321q0 43 19.5 76.5t53 53t76.5 19.5h564q43 0 76.5 -19.5t53 -53t19.5 -76.5v-2q0 -43 -19.5 -76.5t-53 -53t-76.5 -19.5h-564q-43 0 -76.5 19.5t-53 53t-19.5 76.5v2z" />
    <glyph glyph-name="Ustraitstrokecy" unicode="&#x4b0;" 
d="M-150 321q0 43 19.5 76.5t53 53t76.5 19.5h564q43 0 76.5 -19.5t53 -53t19.5 -76.5v-2q0 -43 -19.5 -76.5t-53 -53t-76.5 -19.5h-564q-43 0 -76.5 19.5t-53 53t-19.5 76.5v2z" />
    <glyph glyph-name="ustraitstrokecy" unicode="&#x4b1;" 
d="M-150 321q0 43 19.5 76.5t53 53t76.5 19.5h564q43 0 76.5 -19.5t53 -53t19.5 -76.5v-2q0 -43 -19.5 -76.5t-53 -53t-76.5 -19.5h-564q-43 0 -76.5 19.5t-53 53t-19.5 76.5v2z" />
    <glyph glyph-name="uni04B2" unicode="&#x4b2;" 
d="M-150 321q0 43 19.5 76.5t53 53t76.5 19.5h564q43 0 76.5 -19.5t53 -53t19.5 -76.5v-2q0 -43 -19.5 -76.5t-53 -53t-76.5 -19.5h-564q-43 0 -76.5 19.5t-53 53t-19.5 76.5v2z" />
    <glyph glyph-name="uni04B3" unicode="&#x4b3;" 
d="M-150 321q0 43 19.5 76.5t53 53t76.5 19.5h564q43 0 76.5 -19.5t53 -53t19.5 -76.5v-2q0 -43 -19.5 -76.5t-53 -53t-76.5 -19.5h-564q-43 0 -76.5 19.5t-53 53t-19.5 76.5v2z" />
    <glyph glyph-name="uni04B6" unicode="&#x4b6;" 
d="M-150 321q0 43 19.5 76.5t53 53t76.5 19.5h564q43 0 76.5 -19.5t53 -53t19.5 -76.5v-2q0 -43 -19.5 -76.5t-53 -53t-76.5 -19.5h-564q-43 0 -76.5 19.5t-53 53t-19.5 76.5v2z" />
    <glyph glyph-name="uni04B7" unicode="&#x4b7;" 
d="M-150 321q0 43 19.5 76.5t53 53t76.5 19.5h564q43 0 76.5 -19.5t53 -53t19.5 -76.5v-2q0 -43 -19.5 -76.5t-53 -53t-76.5 -19.5h-564q-43 0 -76.5 19.5t-53 53t-19.5 76.5v2z" />
    <glyph glyph-name="uni04BA" unicode="&#x4ba;" 
d="M-150 321q0 43 19.5 76.5t53 53t76.5 19.5h564q43 0 76.5 -19.5t53 -53t19.5 -76.5v-2q0 -43 -19.5 -76.5t-53 -53t-76.5 -19.5h-564q-43 0 -76.5 19.5t-53 53t-19.5 76.5v2z" />
    <glyph glyph-name="uni04BB" unicode="&#x4bb;" 
d="M-150 321q0 43 19.5 76.5t53 53t76.5 19.5h564q43 0 76.5 -19.5t53 -53t19.5 -76.5v-2q0 -43 -19.5 -76.5t-53 -53t-76.5 -19.5h-564q-43 0 -76.5 19.5t-53 53t-19.5 76.5v2z" />
    <glyph glyph-name="uni04C0" unicode="&#x4c0;" horiz-adv-x="286" 
d="M-150 321q0 43 19.5 76.5t53 53t76.5 19.5h288q43 0 76.5 -19.5t53 -53t19.5 -76.5v-2q0 -43 -19.5 -76.5t-53 -53t-76.5 -19.5h-288q-43 0 -76.5 19.5t-53 53t-19.5 76.5v2z" />
    <glyph glyph-name="uni04CF" unicode="&#x4cf;" horiz-adv-x="286" 
d="M-150 321q0 43 19.5 76.5t53 53t76.5 19.5h288q43 0 76.5 -19.5t53 -53t19.5 -76.5v-2q0 -43 -19.5 -76.5t-53 -53t-76.5 -19.5h-288q-43 0 -76.5 19.5t-53 53t-19.5 76.5v2z" />
    <glyph glyph-name="uni04D8" unicode="&#x4d8;" 
d="M-150 321q0 43 19.5 76.5t53 53t76.5 19.5h564q43 0 76.5 -19.5t53 -53t19.5 -76.5v-2q0 -43 -19.5 -76.5t-53 -53t-76.5 -19.5h-564q-43 0 -76.5 19.5t-53 53t-19.5 76.5v2z" />
    <glyph glyph-name="uni04D9" unicode="&#x4d9;" 
d="M-150 321q0 43 19.5 76.5t53 53t76.5 19.5h564q43 0 76.5 -19.5t53 -53t19.5 -76.5v-2q0 -43 -19.5 -76.5t-53 -53t-76.5 -19.5h-564q-43 0 -76.5 19.5t-53 53t-19.5 76.5v2z" />
    <glyph glyph-name="uni04E2" unicode="&#x4e2;" horiz-adv-x="600" 
d="M-150 321q0 43 19.5 76.5t53 53t76.5 19.5h564q43 0 76.5 -19.5t53 -53t19.5 -76.5v-2q0 -43 -19.5 -76.5t-53 -53t-76.5 -19.5h-564q-43 0 -76.5 19.5t-53 53t-19.5 76.5v2zM-150 321q0 43 19.5 76.5t53 53t76.5 19.5h288q43 0 76.5 -19.5t53 -53t19.5 -76.5v-2
q0 -43 -19.5 -76.5t-53 -53t-76.5 -19.5h-288q-43 0 -76.5 19.5t-53 53t-19.5 76.5v2z" />
    <glyph glyph-name="uni04E3" unicode="&#x4e3;" horiz-adv-x="600" 
d="M-150 321q0 43 19.5 76.5t53 53t76.5 19.5h564q43 0 76.5 -19.5t53 -53t19.5 -76.5v-2q0 -43 -19.5 -76.5t-53 -53t-76.5 -19.5h-564q-43 0 -76.5 19.5t-53 53t-19.5 76.5v2zM-150 321q0 43 19.5 76.5t53 53t76.5 19.5h288q43 0 76.5 -19.5t53 -53t19.5 -76.5v-2
q0 -43 -19.5 -76.5t-53 -53t-76.5 -19.5h-288q-43 0 -76.5 19.5t-53 53t-19.5 76.5v2z" />
    <glyph glyph-name="uni04E8" unicode="&#x4e8;" 
d="M-150 321q0 43 19.5 76.5t53 53t76.5 19.5h564q43 0 76.5 -19.5t53 -53t19.5 -76.5v-2q0 -43 -19.5 -76.5t-53 -53t-76.5 -19.5h-564q-43 0 -76.5 19.5t-53 53t-19.5 76.5v2z" />
    <glyph glyph-name="uni04E9" unicode="&#x4e9;" 
d="M-150 321q0 43 19.5 76.5t53 53t76.5 19.5h564q43 0 76.5 -19.5t53 -53t19.5 -76.5v-2q0 -43 -19.5 -76.5t-53 -53t-76.5 -19.5h-564q-43 0 -76.5 19.5t-53 53t-19.5 76.5v2z" />
    <glyph glyph-name="uni04EE" unicode="&#x4ee;" horiz-adv-x="600" 
d="M-150 321q0 43 19.5 76.5t53 53t76.5 19.5h564q43 0 76.5 -19.5t53 -53t19.5 -76.5v-2q0 -43 -19.5 -76.5t-53 -53t-76.5 -19.5h-564q-43 0 -76.5 19.5t-53 53t-19.5 76.5v2zM-150 321q0 43 19.5 76.5t53 53t76.5 19.5h288q43 0 76.5 -19.5t53 -53t19.5 -76.5v-2
q0 -43 -19.5 -76.5t-53 -53t-76.5 -19.5h-288q-43 0 -76.5 19.5t-53 53t-19.5 76.5v2z" />
    <glyph glyph-name="uni04EF" unicode="&#x4ef;" horiz-adv-x="600" 
d="M-150 321q0 43 19.5 76.5t53 53t76.5 19.5h564q43 0 76.5 -19.5t53 -53t19.5 -76.5v-2q0 -43 -19.5 -76.5t-53 -53t-76.5 -19.5h-564q-43 0 -76.5 19.5t-53 53t-19.5 76.5v2zM-150 321q0 43 19.5 76.5t53 53t76.5 19.5h288q43 0 76.5 -19.5t53 -53t19.5 -76.5v-2
q0 -43 -19.5 -76.5t-53 -53t-76.5 -19.5h-288q-43 0 -76.5 19.5t-53 53t-19.5 76.5v2z" />
    <glyph glyph-name="uni1E04" unicode="&#x1e04;" 
d="M-150 321q0 43 19.5 76.5t53 53t76.5 19.5h564q43 0 76.5 -19.5t53 -53t19.5 -76.5v-2q0 -43 -19.5 -76.5t-53 -53t-76.5 -19.5h-564q-43 0 -76.5 19.5t-53 53t-19.5 76.5v2z" />
    <glyph glyph-name="uni1E05" unicode="&#x1e05;" 
d="M-150 321q0 43 19.5 76.5t53 53t76.5 19.5h564q43 0 76.5 -19.5t53 -53t19.5 -76.5v-2q0 -43 -19.5 -76.5t-53 -53t-76.5 -19.5h-564q-43 0 -76.5 19.5t-53 53t-19.5 76.5v2z" />
    <glyph glyph-name="uni1E0C" unicode="&#x1e0c;" 
d="M-150 321q0 43 19.5 76.5t53 53t76.5 19.5h564q43 0 76.5 -19.5t53 -53t19.5 -76.5v-2q0 -43 -19.5 -76.5t-53 -53t-76.5 -19.5h-564q-43 0 -76.5 19.5t-53 53t-19.5 76.5v2z" />
    <glyph glyph-name="uni1E0D" unicode="&#x1e0d;" 
d="M-150 321q0 43 19.5 76.5t53 53t76.5 19.5h564q43 0 76.5 -19.5t53 -53t19.5 -76.5v-2q0 -43 -19.5 -76.5t-53 -53t-76.5 -19.5h-564q-43 0 -76.5 19.5t-53 53t-19.5 76.5v2z" />
    <glyph glyph-name="uni1E0E" unicode="&#x1e0e;" 
d="M-150 321q0 43 19.5 76.5t53 53t76.5 19.5h564q43 0 76.5 -19.5t53 -53t19.5 -76.5v-2q0 -43 -19.5 -76.5t-53 -53t-76.5 -19.5h-564q-43 0 -76.5 19.5t-53 53t-19.5 76.5v2z" />
    <glyph glyph-name="uni1E0F" unicode="&#x1e0f;" 
d="M-150 321q0 43 19.5 76.5t53 53t76.5 19.5h564q43 0 76.5 -19.5t53 -53t19.5 -76.5v-2q0 -43 -19.5 -76.5t-53 -53t-76.5 -19.5h-564q-43 0 -76.5 19.5t-53 53t-19.5 76.5v2z" />
    <glyph glyph-name="uni1E12" unicode="&#x1e12;" 
d="M-150 321q0 43 19.5 76.5t53 53t76.5 19.5h564q43 0 76.5 -19.5t53 -53t19.5 -76.5v-2q0 -43 -19.5 -76.5t-53 -53t-76.5 -19.5h-564q-43 0 -76.5 19.5t-53 53t-19.5 76.5v2z" />
    <glyph glyph-name="uni1E13" unicode="&#x1e13;" 
d="M-150 321q0 43 19.5 76.5t53 53t76.5 19.5h564q43 0 76.5 -19.5t53 -53t19.5 -76.5v-2q0 -43 -19.5 -76.5t-53 -53t-76.5 -19.5h-564q-43 0 -76.5 19.5t-53 53t-19.5 76.5v2z" />
    <glyph glyph-name="uni1E24" unicode="&#x1e24;" 
d="M-150 321q0 43 19.5 76.5t53 53t76.5 19.5h564q43 0 76.5 -19.5t53 -53t19.5 -76.5v-2q0 -43 -19.5 -76.5t-53 -53t-76.5 -19.5h-564q-43 0 -76.5 19.5t-53 53t-19.5 76.5v2z" />
    <glyph glyph-name="uni1E25" unicode="&#x1e25;" 
d="M-150 321q0 43 19.5 76.5t53 53t76.5 19.5h564q43 0 76.5 -19.5t53 -53t19.5 -76.5v-2q0 -43 -19.5 -76.5t-53 -53t-76.5 -19.5h-564q-43 0 -76.5 19.5t-53 53t-19.5 76.5v2z" />
    <glyph glyph-name="uni1E2E" unicode="&#x1e2e;" horiz-adv-x="600" 
d="M-150 321q0 43 19.5 76.5t53 53t76.5 19.5h288q43 0 76.5 -19.5t53 -53t19.5 -76.5v-2q0 -43 -19.5 -76.5t-53 -53t-76.5 -19.5h-288q-43 0 -76.5 19.5t-53 53t-19.5 76.5v2zM-150 321q0 43 19.5 76.5t53 53t76.5 19.5h288q43 0 76.5 -19.5t53 -53t19.5 -76.5v-2
q0 -43 -19.5 -76.5t-53 -53t-76.5 -19.5h-288q-43 0 -76.5 19.5t-53 53t-19.5 76.5v2zM-150 321q0 43 19.5 76.5t53 53t76.5 19.5h288q43 0 76.5 -19.5t53 -53t19.5 -76.5v-2q0 -43 -19.5 -76.5t-53 -53t-76.5 -19.5h-288q-43 0 -76.5 19.5t-53 53t-19.5 76.5v2z" />
    <glyph glyph-name="uni1E2F" unicode="&#x1e2f;" horiz-adv-x="286" 
d="M-150 321q0 43 19.5 76.5t53 53t76.5 19.5h288q43 0 76.5 -19.5t53 -53t19.5 -76.5v-2q0 -43 -19.5 -76.5t-53 -53t-76.5 -19.5h-288q-43 0 -76.5 19.5t-53 53t-19.5 76.5v2z" />
    <glyph glyph-name="uni1E36" unicode="&#x1e36;" horiz-adv-x="286" 
d="M-150 321q0 43 19.5 76.5t53 53t76.5 19.5h288q43 0 76.5 -19.5t53 -53t19.5 -76.5v-2q0 -43 -19.5 -76.5t-53 -53t-76.5 -19.5h-288q-43 0 -76.5 19.5t-53 53t-19.5 76.5v2z" />
    <glyph glyph-name="uni1E37" unicode="&#x1e37;" horiz-adv-x="286" 
d="M-150 321q0 43 19.5 76.5t53 53t76.5 19.5h288q43 0 76.5 -19.5t53 -53t19.5 -76.5v-2q0 -43 -19.5 -76.5t-53 -53t-76.5 -19.5h-288q-43 0 -76.5 19.5t-53 53t-19.5 76.5v2z" />
    <glyph glyph-name="uni1E3C" unicode="&#x1e3c;" horiz-adv-x="286" 
d="M-150 321q0 43 19.5 76.5t53 53t76.5 19.5h288q43 0 76.5 -19.5t53 -53t19.5 -76.5v-2q0 -43 -19.5 -76.5t-53 -53t-76.5 -19.5h-288q-43 0 -76.5 19.5t-53 53t-19.5 76.5v2z" />
    <glyph glyph-name="uni1E3D" unicode="&#x1e3d;" horiz-adv-x="286" 
d="M-150 321q0 43 19.5 76.5t53 53t76.5 19.5h288q43 0 76.5 -19.5t53 -53t19.5 -76.5v-2q0 -43 -19.5 -76.5t-53 -53t-76.5 -19.5h-288q-43 0 -76.5 19.5t-53 53t-19.5 76.5v2z" />
    <glyph glyph-name="uni1E3E" unicode="&#x1e3e;" horiz-adv-x="600" 
d="M-150 321q0 43 19.5 76.5t53 53t76.5 19.5h564q43 0 76.5 -19.5t53 -53t19.5 -76.5v-2q0 -43 -19.5 -76.5t-53 -53t-76.5 -19.5h-564q-43 0 -76.5 19.5t-53 53t-19.5 76.5v2zM-150 321q0 43 19.5 76.5t53 53t76.5 19.5h288q43 0 76.5 -19.5t53 -53t19.5 -76.5v-2
q0 -43 -19.5 -76.5t-53 -53t-76.5 -19.5h-288q-43 0 -76.5 19.5t-53 53t-19.5 76.5v2z" />
    <glyph glyph-name="uni1E3F" unicode="&#x1e3f;" horiz-adv-x="600" 
d="M-150 321q0 43 19.5 76.5t53 53t76.5 19.5h564q43 0 76.5 -19.5t53 -53t19.5 -76.5v-2q0 -43 -19.5 -76.5t-53 -53t-76.5 -19.5h-564q-43 0 -76.5 19.5t-53 53t-19.5 76.5v2zM-150 321q0 43 19.5 76.5t53 53t76.5 19.5h288q43 0 76.5 -19.5t53 -53t19.5 -76.5v-2
q0 -43 -19.5 -76.5t-53 -53t-76.5 -19.5h-288q-43 0 -76.5 19.5t-53 53t-19.5 76.5v2z" />
    <glyph glyph-name="uni1E44" unicode="&#x1e44;" horiz-adv-x="600" 
d="M-150 321q0 43 19.5 76.5t53 53t76.5 19.5h564q43 0 76.5 -19.5t53 -53t19.5 -76.5v-2q0 -43 -19.5 -76.5t-53 -53t-76.5 -19.5h-564q-43 0 -76.5 19.5t-53 53t-19.5 76.5v2zM-150 321q0 43 19.5 76.5t53 53t76.5 19.5h288q43 0 76.5 -19.5t53 -53t19.5 -76.5v-2
q0 -43 -19.5 -76.5t-53 -53t-76.5 -19.5h-288q-43 0 -76.5 19.5t-53 53t-19.5 76.5v2z" />
    <glyph glyph-name="uni1E45" unicode="&#x1e45;" horiz-adv-x="600" 
d="M-150 321q0 43 19.5 76.5t53 53t76.5 19.5h564q43 0 76.5 -19.5t53 -53t19.5 -76.5v-2q0 -43 -19.5 -76.5t-53 -53t-76.5 -19.5h-564q-43 0 -76.5 19.5t-53 53t-19.5 76.5v2zM-150 321q0 43 19.5 76.5t53 53t76.5 19.5h288q43 0 76.5 -19.5t53 -53t19.5 -76.5v-2
q0 -43 -19.5 -76.5t-53 -53t-76.5 -19.5h-288q-43 0 -76.5 19.5t-53 53t-19.5 76.5v2z" />
    <glyph glyph-name="uni1E46" unicode="&#x1e46;" 
d="M-150 321q0 43 19.5 76.5t53 53t76.5 19.5h564q43 0 76.5 -19.5t53 -53t19.5 -76.5v-2q0 -43 -19.5 -76.5t-53 -53t-76.5 -19.5h-564q-43 0 -76.5 19.5t-53 53t-19.5 76.5v2z" />
    <glyph glyph-name="uni1E47" unicode="&#x1e47;" 
d="M-150 321q0 43 19.5 76.5t53 53t76.5 19.5h564q43 0 76.5 -19.5t53 -53t19.5 -76.5v-2q0 -43 -19.5 -76.5t-53 -53t-76.5 -19.5h-564q-43 0 -76.5 19.5t-53 53t-19.5 76.5v2z" />
    <glyph glyph-name="uni1E4A" unicode="&#x1e4a;" 
d="M-150 321q0 43 19.5 76.5t53 53t76.5 19.5h564q43 0 76.5 -19.5t53 -53t19.5 -76.5v-2q0 -43 -19.5 -76.5t-53 -53t-76.5 -19.5h-564q-43 0 -76.5 19.5t-53 53t-19.5 76.5v2z" />
    <glyph glyph-name="uni1E4B" unicode="&#x1e4b;" 
d="M-150 321q0 43 19.5 76.5t53 53t76.5 19.5h564q43 0 76.5 -19.5t53 -53t19.5 -76.5v-2q0 -43 -19.5 -76.5t-53 -53t-76.5 -19.5h-564q-43 0 -76.5 19.5t-53 53t-19.5 76.5v2z" />
    <glyph glyph-name="uni1E4C" unicode="&#x1e4c;" horiz-adv-x="600" 
d="M-150 321q0 43 19.5 76.5t53 53t76.5 19.5h564q43 0 76.5 -19.5t53 -53t19.5 -76.5v-2q0 -43 -19.5 -76.5t-53 -53t-76.5 -19.5h-564q-43 0 -76.5 19.5t-53 53t-19.5 76.5v2zM-150 321q0 43 19.5 76.5t53 53t76.5 19.5h288q43 0 76.5 -19.5t53 -53t19.5 -76.5v-2
q0 -43 -19.5 -76.5t-53 -53t-76.5 -19.5h-288q-43 0 -76.5 19.5t-53 53t-19.5 76.5v2zM-150 321q0 43 19.5 76.5t53 53t76.5 19.5h288q43 0 76.5 -19.5t53 -53t19.5 -76.5v-2q0 -43 -19.5 -76.5t-53 -53t-76.5 -19.5h-288q-43 0 -76.5 19.5t-53 53t-19.5 76.5v2z" />
    <glyph glyph-name="uni1E4D" unicode="&#x1e4d;" horiz-adv-x="600" 
d="M-150 321q0 43 19.5 76.5t53 53t76.5 19.5h564q43 0 76.5 -19.5t53 -53t19.5 -76.5v-2q0 -43 -19.5 -76.5t-53 -53t-76.5 -19.5h-564q-43 0 -76.5 19.5t-53 53t-19.5 76.5v2zM-150 321q0 43 19.5 76.5t53 53t76.5 19.5h288q43 0 76.5 -19.5t53 -53t19.5 -76.5v-2
q0 -43 -19.5 -76.5t-53 -53t-76.5 -19.5h-288q-43 0 -76.5 19.5t-53 53t-19.5 76.5v2zM-150 321q0 43 19.5 76.5t53 53t76.5 19.5h288q43 0 76.5 -19.5t53 -53t19.5 -76.5v-2q0 -43 -19.5 -76.5t-53 -53t-76.5 -19.5h-288q-43 0 -76.5 19.5t-53 53t-19.5 76.5v2z" />
    <glyph glyph-name="uni1E50" unicode="&#x1e50;" horiz-adv-x="600" 
d="M-150 321q0 43 19.5 76.5t53 53t76.5 19.5h564q43 0 76.5 -19.5t53 -53t19.5 -76.5v-2q0 -43 -19.5 -76.5t-53 -53t-76.5 -19.5h-564q-43 0 -76.5 19.5t-53 53t-19.5 76.5v2zM-150 321q0 43 19.5 76.5t53 53t76.5 19.5h288q43 0 76.5 -19.5t53 -53t19.5 -76.5v-2
q0 -43 -19.5 -76.5t-53 -53t-76.5 -19.5h-288q-43 0 -76.5 19.5t-53 53t-19.5 76.5v2zM-150 321q0 43 19.5 76.5t53 53t76.5 19.5h288q43 0 76.5 -19.5t53 -53t19.5 -76.5v-2q0 -43 -19.5 -76.5t-53 -53t-76.5 -19.5h-288q-43 0 -76.5 19.5t-53 53t-19.5 76.5v2z" />
    <glyph glyph-name="uni1E51" unicode="&#x1e51;" horiz-adv-x="600" 
d="M-150 321q0 43 19.5 76.5t53 53t76.5 19.5h564q43 0 76.5 -19.5t53 -53t19.5 -76.5v-2q0 -43 -19.5 -76.5t-53 -53t-76.5 -19.5h-564q-43 0 -76.5 19.5t-53 53t-19.5 76.5v2zM-150 321q0 43 19.5 76.5t53 53t76.5 19.5h288q43 0 76.5 -19.5t53 -53t19.5 -76.5v-2
q0 -43 -19.5 -76.5t-53 -53t-76.5 -19.5h-288q-43 0 -76.5 19.5t-53 53t-19.5 76.5v2zM-150 321q0 43 19.5 76.5t53 53t76.5 19.5h288q43 0 76.5 -19.5t53 -53t19.5 -76.5v-2q0 -43 -19.5 -76.5t-53 -53t-76.5 -19.5h-288q-43 0 -76.5 19.5t-53 53t-19.5 76.5v2z" />
    <glyph glyph-name="uni1E52" unicode="&#x1e52;" horiz-adv-x="600" 
d="M-150 321q0 43 19.5 76.5t53 53t76.5 19.5h564q43 0 76.5 -19.5t53 -53t19.5 -76.5v-2q0 -43 -19.5 -76.5t-53 -53t-76.5 -19.5h-564q-43 0 -76.5 19.5t-53 53t-19.5 76.5v2zM-150 321q0 43 19.5 76.5t53 53t76.5 19.5h288q43 0 76.5 -19.5t53 -53t19.5 -76.5v-2
q0 -43 -19.5 -76.5t-53 -53t-76.5 -19.5h-288q-43 0 -76.5 19.5t-53 53t-19.5 76.5v2zM-150 321q0 43 19.5 76.5t53 53t76.5 19.5h288q43 0 76.5 -19.5t53 -53t19.5 -76.5v-2q0 -43 -19.5 -76.5t-53 -53t-76.5 -19.5h-288q-43 0 -76.5 19.5t-53 53t-19.5 76.5v2z" />
    <glyph glyph-name="uni1E53" unicode="&#x1e53;" horiz-adv-x="600" 
d="M-150 321q0 43 19.5 76.5t53 53t76.5 19.5h564q43 0 76.5 -19.5t53 -53t19.5 -76.5v-2q0 -43 -19.5 -76.5t-53 -53t-76.5 -19.5h-564q-43 0 -76.5 19.5t-53 53t-19.5 76.5v2zM-150 321q0 43 19.5 76.5t53 53t76.5 19.5h288q43 0 76.5 -19.5t53 -53t19.5 -76.5v-2
q0 -43 -19.5 -76.5t-53 -53t-76.5 -19.5h-288q-43 0 -76.5 19.5t-53 53t-19.5 76.5v2zM-150 321q0 43 19.5 76.5t53 53t76.5 19.5h288q43 0 76.5 -19.5t53 -53t19.5 -76.5v-2q0 -43 -19.5 -76.5t-53 -53t-76.5 -19.5h-288q-43 0 -76.5 19.5t-53 53t-19.5 76.5v2z" />
    <glyph glyph-name="uni1E62" unicode="&#x1e62;" 
d="M-150 321q0 43 19.5 76.5t53 53t76.5 19.5h564q43 0 76.5 -19.5t53 -53t19.5 -76.5v-2q0 -43 -19.5 -76.5t-53 -53t-76.5 -19.5h-564q-43 0 -76.5 19.5t-53 53t-19.5 76.5v2z" />
    <glyph glyph-name="uni1E63" unicode="&#x1e63;" 
d="M-150 321q0 43 19.5 76.5t53 53t76.5 19.5h564q43 0 76.5 -19.5t53 -53t19.5 -76.5v-2q0 -43 -19.5 -76.5t-53 -53t-76.5 -19.5h-564q-43 0 -76.5 19.5t-53 53t-19.5 76.5v2z" />
    <glyph glyph-name="uni1E6C" unicode="&#x1e6c;" horiz-adv-x="286" 
d="M-150 321q0 43 19.5 76.5t53 53t76.5 19.5h288q43 0 76.5 -19.5t53 -53t19.5 -76.5v-2q0 -43 -19.5 -76.5t-53 -53t-76.5 -19.5h-288q-43 0 -76.5 19.5t-53 53t-19.5 76.5v2z" />
    <glyph glyph-name="uni1E6D" unicode="&#x1e6d;" horiz-adv-x="286" 
d="M-150 321q0 43 19.5 76.5t53 53t76.5 19.5h288q43 0 76.5 -19.5t53 -53t19.5 -76.5v-2q0 -43 -19.5 -76.5t-53 -53t-76.5 -19.5h-288q-43 0 -76.5 19.5t-53 53t-19.5 76.5v2z" />
    <glyph glyph-name="uni1E6E" unicode="&#x1e6e;" horiz-adv-x="286" 
d="M-150 321q0 43 19.5 76.5t53 53t76.5 19.5h288q43 0 76.5 -19.5t53 -53t19.5 -76.5v-2q0 -43 -19.5 -76.5t-53 -53t-76.5 -19.5h-288q-43 0 -76.5 19.5t-53 53t-19.5 76.5v2z" />
    <glyph glyph-name="uni1E6F" unicode="&#x1e6f;" horiz-adv-x="286" 
d="M-150 321q0 43 19.5 76.5t53 53t76.5 19.5h288q43 0 76.5 -19.5t53 -53t19.5 -76.5v-2q0 -43 -19.5 -76.5t-53 -53t-76.5 -19.5h-288q-43 0 -76.5 19.5t-53 53t-19.5 76.5v2z" />
    <glyph glyph-name="uni1E70" unicode="&#x1e70;" horiz-adv-x="286" 
d="M-150 321q0 43 19.5 76.5t53 53t76.5 19.5h288q43 0 76.5 -19.5t53 -53t19.5 -76.5v-2q0 -43 -19.5 -76.5t-53 -53t-76.5 -19.5h-288q-43 0 -76.5 19.5t-53 53t-19.5 76.5v2z" />
    <glyph glyph-name="uni1E71" unicode="&#x1e71;" horiz-adv-x="286" 
d="M-150 321q0 43 19.5 76.5t53 53t76.5 19.5h288q43 0 76.5 -19.5t53 -53t19.5 -76.5v-2q0 -43 -19.5 -76.5t-53 -53t-76.5 -19.5h-288q-43 0 -76.5 19.5t-53 53t-19.5 76.5v2z" />
    <glyph glyph-name="Wgrave" unicode="&#x1e80;" 
d="M-150 321q0 43 19.5 76.5t53 53t76.5 19.5h564q43 0 76.5 -19.5t53 -53t19.5 -76.5v-2q0 -43 -19.5 -76.5t-53 -53t-76.5 -19.5h-564q-43 0 -76.5 19.5t-53 53t-19.5 76.5v2z" />
    <glyph glyph-name="wgrave" unicode="&#x1e81;" 
d="M-150 321q0 43 19.5 76.5t53 53t76.5 19.5h564q43 0 76.5 -19.5t53 -53t19.5 -76.5v-2q0 -43 -19.5 -76.5t-53 -53t-76.5 -19.5h-564q-43 0 -76.5 19.5t-53 53t-19.5 76.5v2z" />
    <glyph glyph-name="Wacute" unicode="&#x1e82;" 
d="M-150 321q0 43 19.5 76.5t53 53t76.5 19.5h564q43 0 76.5 -19.5t53 -53t19.5 -76.5v-2q0 -43 -19.5 -76.5t-53 -53t-76.5 -19.5h-564q-43 0 -76.5 19.5t-53 53t-19.5 76.5v2z" />
    <glyph glyph-name="wacute" unicode="&#x1e83;" 
d="M-150 321q0 43 19.5 76.5t53 53t76.5 19.5h564q43 0 76.5 -19.5t53 -53t19.5 -76.5v-2q0 -43 -19.5 -76.5t-53 -53t-76.5 -19.5h-564q-43 0 -76.5 19.5t-53 53t-19.5 76.5v2z" />
    <glyph glyph-name="Wdieresis" unicode="&#x1e84;" 
d="M-150 321q0 43 19.5 76.5t53 53t76.5 19.5h564q43 0 76.5 -19.5t53 -53t19.5 -76.5v-2q0 -43 -19.5 -76.5t-53 -53t-76.5 -19.5h-564q-43 0 -76.5 19.5t-53 53t-19.5 76.5v2z" />
    <glyph glyph-name="wdieresis" unicode="&#x1e85;" 
d="M-150 321q0 43 19.5 76.5t53 53t76.5 19.5h564q43 0 76.5 -19.5t53 -53t19.5 -76.5v-2q0 -43 -19.5 -76.5t-53 -53t-76.5 -19.5h-564q-43 0 -76.5 19.5t-53 53t-19.5 76.5v2z" />
    <glyph glyph-name="uni1E92" unicode="&#x1e92;" 
d="M-150 321q0 43 19.5 76.5t53 53t76.5 19.5h564q43 0 76.5 -19.5t53 -53t19.5 -76.5v-2q0 -43 -19.5 -76.5t-53 -53t-76.5 -19.5h-564q-43 0 -76.5 19.5t-53 53t-19.5 76.5v2z" />
    <glyph glyph-name="uni1E93" unicode="&#x1e93;" 
d="M-150 321q0 43 19.5 76.5t53 53t76.5 19.5h564q43 0 76.5 -19.5t53 -53t19.5 -76.5v-2q0 -43 -19.5 -76.5t-53 -53t-76.5 -19.5h-564q-43 0 -76.5 19.5t-53 53t-19.5 76.5v2z" />
    <glyph glyph-name="uni1EA0" unicode="&#x1ea0;" 
d="M-150 321q0 43 19.5 76.5t53 53t76.5 19.5h564q43 0 76.5 -19.5t53 -53t19.5 -76.5v-2q0 -43 -19.5 -76.5t-53 -53t-76.5 -19.5h-564q-43 0 -76.5 19.5t-53 53t-19.5 76.5v2z" />
    <glyph glyph-name="uni1EA1" unicode="&#x1ea1;" 
d="M-150 321q0 43 19.5 76.5t53 53t76.5 19.5h564q43 0 76.5 -19.5t53 -53t19.5 -76.5v-2q0 -43 -19.5 -76.5t-53 -53t-76.5 -19.5h-564q-43 0 -76.5 19.5t-53 53t-19.5 76.5v2z" />
    <glyph glyph-name="uni1EA2" unicode="&#x1ea2;" 
d="M-150 321q0 43 19.5 76.5t53 53t76.5 19.5h564q43 0 76.5 -19.5t53 -53t19.5 -76.5v-2q0 -43 -19.5 -76.5t-53 -53t-76.5 -19.5h-564q-43 0 -76.5 19.5t-53 53t-19.5 76.5v2z" />
    <glyph glyph-name="uni1EA3" unicode="&#x1ea3;" 
d="M-150 321q0 43 19.5 76.5t53 53t76.5 19.5h564q43 0 76.5 -19.5t53 -53t19.5 -76.5v-2q0 -43 -19.5 -76.5t-53 -53t-76.5 -19.5h-564q-43 0 -76.5 19.5t-53 53t-19.5 76.5v2z" />
    <glyph glyph-name="uni1EA4" unicode="&#x1ea4;" 
d="M-150 321q0 43 19.5 76.5t53 53t76.5 19.5h564q43 0 76.5 -19.5t53 -53t19.5 -76.5v-2q0 -43 -19.5 -76.5t-53 -53t-76.5 -19.5h-564q-43 0 -76.5 19.5t-53 53t-19.5 76.5v2z" />
    <glyph glyph-name="uni1EA5" unicode="&#x1ea5;" 
d="M-150 321q0 43 19.5 76.5t53 53t76.5 19.5h564q43 0 76.5 -19.5t53 -53t19.5 -76.5v-2q0 -43 -19.5 -76.5t-53 -53t-76.5 -19.5h-564q-43 0 -76.5 19.5t-53 53t-19.5 76.5v2z" />
    <glyph glyph-name="uni1EA6" unicode="&#x1ea6;" 
d="M-150 321q0 43 19.5 76.5t53 53t76.5 19.5h564q43 0 76.5 -19.5t53 -53t19.5 -76.5v-2q0 -43 -19.5 -76.5t-53 -53t-76.5 -19.5h-564q-43 0 -76.5 19.5t-53 53t-19.5 76.5v2z" />
    <glyph glyph-name="uni1EA7" unicode="&#x1ea7;" 
d="M-150 321q0 43 19.5 76.5t53 53t76.5 19.5h564q43 0 76.5 -19.5t53 -53t19.5 -76.5v-2q0 -43 -19.5 -76.5t-53 -53t-76.5 -19.5h-564q-43 0 -76.5 19.5t-53 53t-19.5 76.5v2z" />
    <glyph glyph-name="uni1EA8" unicode="&#x1ea8;" 
d="M-150 321q0 43 19.5 76.5t53 53t76.5 19.5h564q43 0 76.5 -19.5t53 -53t19.5 -76.5v-2q0 -43 -19.5 -76.5t-53 -53t-76.5 -19.5h-564q-43 0 -76.5 19.5t-53 53t-19.5 76.5v2z" />
    <glyph glyph-name="uni1EA9" unicode="&#x1ea9;" 
d="M-150 321q0 43 19.5 76.5t53 53t76.5 19.5h564q43 0 76.5 -19.5t53 -53t19.5 -76.5v-2q0 -43 -19.5 -76.5t-53 -53t-76.5 -19.5h-564q-43 0 -76.5 19.5t-53 53t-19.5 76.5v2z" />
    <glyph glyph-name="uni1EAA" unicode="&#x1eaa;" 
d="M-150 321q0 43 19.5 76.5t53 53t76.5 19.5h564q43 0 76.5 -19.5t53 -53t19.5 -76.5v-2q0 -43 -19.5 -76.5t-53 -53t-76.5 -19.5h-564q-43 0 -76.5 19.5t-53 53t-19.5 76.5v2z" />
    <glyph glyph-name="uni1EAB" unicode="&#x1eab;" 
d="M-150 321q0 43 19.5 76.5t53 53t76.5 19.5h564q43 0 76.5 -19.5t53 -53t19.5 -76.5v-2q0 -43 -19.5 -76.5t-53 -53t-76.5 -19.5h-564q-43 0 -76.5 19.5t-53 53t-19.5 76.5v2z" />
    <glyph glyph-name="uni1EAC" unicode="&#x1eac;" 
d="M-150 321q0 43 19.5 76.5t53 53t76.5 19.5h564q43 0 76.5 -19.5t53 -53t19.5 -76.5v-2q0 -43 -19.5 -76.5t-53 -53t-76.5 -19.5h-564q-43 0 -76.5 19.5t-53 53t-19.5 76.5v2z" />
    <glyph glyph-name="uni1EAD" unicode="&#x1ead;" 
d="M-150 321q0 43 19.5 76.5t53 53t76.5 19.5h564q43 0 76.5 -19.5t53 -53t19.5 -76.5v-2q0 -43 -19.5 -76.5t-53 -53t-76.5 -19.5h-564q-43 0 -76.5 19.5t-53 53t-19.5 76.5v2z" />
    <glyph glyph-name="uni1EAE" unicode="&#x1eae;" 
d="M-150 321q0 43 19.5 76.5t53 53t76.5 19.5h564q43 0 76.5 -19.5t53 -53t19.5 -76.5v-2q0 -43 -19.5 -76.5t-53 -53t-76.5 -19.5h-564q-43 0 -76.5 19.5t-53 53t-19.5 76.5v2z" />
    <glyph glyph-name="uni1EAF" unicode="&#x1eaf;" 
d="M-150 321q0 43 19.5 76.5t53 53t76.5 19.5h564q43 0 76.5 -19.5t53 -53t19.5 -76.5v-2q0 -43 -19.5 -76.5t-53 -53t-76.5 -19.5h-564q-43 0 -76.5 19.5t-53 53t-19.5 76.5v2z" />
    <glyph glyph-name="uni1EB0" unicode="&#x1eb0;" 
d="M-150 321q0 43 19.5 76.5t53 53t76.5 19.5h564q43 0 76.5 -19.5t53 -53t19.5 -76.5v-2q0 -43 -19.5 -76.5t-53 -53t-76.5 -19.5h-564q-43 0 -76.5 19.5t-53 53t-19.5 76.5v2z" />
    <glyph glyph-name="uni1EB1" unicode="&#x1eb1;" 
d="M-150 321q0 43 19.5 76.5t53 53t76.5 19.5h564q43 0 76.5 -19.5t53 -53t19.5 -76.5v-2q0 -43 -19.5 -76.5t-53 -53t-76.5 -19.5h-564q-43 0 -76.5 19.5t-53 53t-19.5 76.5v2z" />
    <glyph glyph-name="uni1EB2" unicode="&#x1eb2;" 
d="M-150 321q0 43 19.5 76.5t53 53t76.5 19.5h564q43 0 76.5 -19.5t53 -53t19.5 -76.5v-2q0 -43 -19.5 -76.5t-53 -53t-76.5 -19.5h-564q-43 0 -76.5 19.5t-53 53t-19.5 76.5v2z" />
    <glyph glyph-name="uni1EB3" unicode="&#x1eb3;" 
d="M-150 321q0 43 19.5 76.5t53 53t76.5 19.5h564q43 0 76.5 -19.5t53 -53t19.5 -76.5v-2q0 -43 -19.5 -76.5t-53 -53t-76.5 -19.5h-564q-43 0 -76.5 19.5t-53 53t-19.5 76.5v2z" />
    <glyph glyph-name="uni1EB4" unicode="&#x1eb4;" 
d="M-150 321q0 43 19.5 76.5t53 53t76.5 19.5h564q43 0 76.5 -19.5t53 -53t19.5 -76.5v-2q0 -43 -19.5 -76.5t-53 -53t-76.5 -19.5h-564q-43 0 -76.5 19.5t-53 53t-19.5 76.5v2z" />
    <glyph glyph-name="uni1EB5" unicode="&#x1eb5;" 
d="M-150 321q0 43 19.5 76.5t53 53t76.5 19.5h564q43 0 76.5 -19.5t53 -53t19.5 -76.5v-2q0 -43 -19.5 -76.5t-53 -53t-76.5 -19.5h-564q-43 0 -76.5 19.5t-53 53t-19.5 76.5v2z" />
    <glyph glyph-name="uni1EB6" unicode="&#x1eb6;" 
d="M-150 321q0 43 19.5 76.5t53 53t76.5 19.5h564q43 0 76.5 -19.5t53 -53t19.5 -76.5v-2q0 -43 -19.5 -76.5t-53 -53t-76.5 -19.5h-564q-43 0 -76.5 19.5t-53 53t-19.5 76.5v2z" />
    <glyph glyph-name="uni1EB7" unicode="&#x1eb7;" 
d="M-150 321q0 43 19.5 76.5t53 53t76.5 19.5h564q43 0 76.5 -19.5t53 -53t19.5 -76.5v-2q0 -43 -19.5 -76.5t-53 -53t-76.5 -19.5h-564q-43 0 -76.5 19.5t-53 53t-19.5 76.5v2z" />
    <glyph glyph-name="uni1EB8" unicode="&#x1eb8;" 
d="M-150 321q0 43 19.5 76.5t53 53t76.5 19.5h564q43 0 76.5 -19.5t53 -53t19.5 -76.5v-2q0 -43 -19.5 -76.5t-53 -53t-76.5 -19.5h-564q-43 0 -76.5 19.5t-53 53t-19.5 76.5v2z" />
    <glyph glyph-name="uni1EB9" unicode="&#x1eb9;" 
d="M-150 321q0 43 19.5 76.5t53 53t76.5 19.5h564q43 0 76.5 -19.5t53 -53t19.5 -76.5v-2q0 -43 -19.5 -76.5t-53 -53t-76.5 -19.5h-564q-43 0 -76.5 19.5t-53 53t-19.5 76.5v2z" />
    <glyph glyph-name="uni1EBA" unicode="&#x1eba;" 
d="M-150 321q0 43 19.5 76.5t53 53t76.5 19.5h564q43 0 76.5 -19.5t53 -53t19.5 -76.5v-2q0 -43 -19.5 -76.5t-53 -53t-76.5 -19.5h-564q-43 0 -76.5 19.5t-53 53t-19.5 76.5v2z" />
    <glyph glyph-name="uni1EBB" unicode="&#x1ebb;" 
d="M-150 321q0 43 19.5 76.5t53 53t76.5 19.5h564q43 0 76.5 -19.5t53 -53t19.5 -76.5v-2q0 -43 -19.5 -76.5t-53 -53t-76.5 -19.5h-564q-43 0 -76.5 19.5t-53 53t-19.5 76.5v2z" />
    <glyph glyph-name="uni1EBC" unicode="&#x1ebc;" 
d="M-150 321q0 43 19.5 76.5t53 53t76.5 19.5h564q43 0 76.5 -19.5t53 -53t19.5 -76.5v-2q0 -43 -19.5 -76.5t-53 -53t-76.5 -19.5h-564q-43 0 -76.5 19.5t-53 53t-19.5 76.5v2z" />
    <glyph glyph-name="uni1EBD" unicode="&#x1ebd;" 
d="M-150 321q0 43 19.5 76.5t53 53t76.5 19.5h564q43 0 76.5 -19.5t53 -53t19.5 -76.5v-2q0 -43 -19.5 -76.5t-53 -53t-76.5 -19.5h-564q-43 0 -76.5 19.5t-53 53t-19.5 76.5v2z" />
    <glyph glyph-name="uni1EBE" unicode="&#x1ebe;" 
d="M-150 321q0 43 19.5 76.5t53 53t76.5 19.5h564q43 0 76.5 -19.5t53 -53t19.5 -76.5v-2q0 -43 -19.5 -76.5t-53 -53t-76.5 -19.5h-564q-43 0 -76.5 19.5t-53 53t-19.5 76.5v2z" />
    <glyph glyph-name="uni1EBF" unicode="&#x1ebf;" 
d="M-150 321q0 43 19.5 76.5t53 53t76.5 19.5h564q43 0 76.5 -19.5t53 -53t19.5 -76.5v-2q0 -43 -19.5 -76.5t-53 -53t-76.5 -19.5h-564q-43 0 -76.5 19.5t-53 53t-19.5 76.5v2z" />
    <glyph glyph-name="uni1EC0" unicode="&#x1ec0;" 
d="M-150 321q0 43 19.5 76.5t53 53t76.5 19.5h564q43 0 76.5 -19.5t53 -53t19.5 -76.5v-2q0 -43 -19.5 -76.5t-53 -53t-76.5 -19.5h-564q-43 0 -76.5 19.5t-53 53t-19.5 76.5v2z" />
    <glyph glyph-name="uni1EC1" unicode="&#x1ec1;" 
d="M-150 321q0 43 19.5 76.5t53 53t76.5 19.5h564q43 0 76.5 -19.5t53 -53t19.5 -76.5v-2q0 -43 -19.5 -76.5t-53 -53t-76.5 -19.5h-564q-43 0 -76.5 19.5t-53 53t-19.5 76.5v2z" />
    <glyph glyph-name="uni1EC2" unicode="&#x1ec2;" 
d="M-150 321q0 43 19.5 76.5t53 53t76.5 19.5h564q43 0 76.5 -19.5t53 -53t19.5 -76.5v-2q0 -43 -19.5 -76.5t-53 -53t-76.5 -19.5h-564q-43 0 -76.5 19.5t-53 53t-19.5 76.5v2z" />
    <glyph glyph-name="uni1EC3" unicode="&#x1ec3;" 
d="M-150 321q0 43 19.5 76.5t53 53t76.5 19.5h564q43 0 76.5 -19.5t53 -53t19.5 -76.5v-2q0 -43 -19.5 -76.5t-53 -53t-76.5 -19.5h-564q-43 0 -76.5 19.5t-53 53t-19.5 76.5v2z" />
    <glyph glyph-name="uni1EC4" unicode="&#x1ec4;" 
d="M-150 321q0 43 19.5 76.5t53 53t76.5 19.5h564q43 0 76.5 -19.5t53 -53t19.5 -76.5v-2q0 -43 -19.5 -76.5t-53 -53t-76.5 -19.5h-564q-43 0 -76.5 19.5t-53 53t-19.5 76.5v2z" />
    <glyph glyph-name="uni1EC5" unicode="&#x1ec5;" 
d="M-150 321q0 43 19.5 76.5t53 53t76.5 19.5h564q43 0 76.5 -19.5t53 -53t19.5 -76.5v-2q0 -43 -19.5 -76.5t-53 -53t-76.5 -19.5h-564q-43 0 -76.5 19.5t-53 53t-19.5 76.5v2z" />
    <glyph glyph-name="uni1EC6" unicode="&#x1ec6;" 
d="M-150 321q0 43 19.5 76.5t53 53t76.5 19.5h564q43 0 76.5 -19.5t53 -53t19.5 -76.5v-2q0 -43 -19.5 -76.5t-53 -53t-76.5 -19.5h-564q-43 0 -76.5 19.5t-53 53t-19.5 76.5v2z" />
    <glyph glyph-name="uni1EC7" unicode="&#x1ec7;" 
d="M-150 321q0 43 19.5 76.5t53 53t76.5 19.5h564q43 0 76.5 -19.5t53 -53t19.5 -76.5v-2q0 -43 -19.5 -76.5t-53 -53t-76.5 -19.5h-564q-43 0 -76.5 19.5t-53 53t-19.5 76.5v2z" />
    <glyph glyph-name="uni1EC8" unicode="&#x1ec8;" horiz-adv-x="286" 
d="M-150 321q0 43 19.5 76.5t53 53t76.5 19.5h288q43 0 76.5 -19.5t53 -53t19.5 -76.5v-2q0 -43 -19.5 -76.5t-53 -53t-76.5 -19.5h-288q-43 0 -76.5 19.5t-53 53t-19.5 76.5v2z" />
    <glyph glyph-name="uni1EC9" unicode="&#x1ec9;" horiz-adv-x="286" 
d="M-150 321q0 43 19.5 76.5t53 53t76.5 19.5h288q43 0 76.5 -19.5t53 -53t19.5 -76.5v-2q0 -43 -19.5 -76.5t-53 -53t-76.5 -19.5h-288q-43 0 -76.5 19.5t-53 53t-19.5 76.5v2z" />
    <glyph glyph-name="uni1ECA" unicode="&#x1eca;" horiz-adv-x="286" 
d="M-150 321q0 43 19.5 76.5t53 53t76.5 19.5h288q43 0 76.5 -19.5t53 -53t19.5 -76.5v-2q0 -43 -19.5 -76.5t-53 -53t-76.5 -19.5h-288q-43 0 -76.5 19.5t-53 53t-19.5 76.5v2z" />
    <glyph glyph-name="uni1ECB" unicode="&#x1ecb;" horiz-adv-x="286" 
d="M-150 321q0 43 19.5 76.5t53 53t76.5 19.5h288q43 0 76.5 -19.5t53 -53t19.5 -76.5v-2q0 -43 -19.5 -76.5t-53 -53t-76.5 -19.5h-288q-43 0 -76.5 19.5t-53 53t-19.5 76.5v2z" />
    <glyph glyph-name="uni1ECC" unicode="&#x1ecc;" 
d="M-150 321q0 43 19.5 76.5t53 53t76.5 19.5h564q43 0 76.5 -19.5t53 -53t19.5 -76.5v-2q0 -43 -19.5 -76.5t-53 -53t-76.5 -19.5h-564q-43 0 -76.5 19.5t-53 53t-19.5 76.5v2z" />
    <glyph glyph-name="uni1ECD" unicode="&#x1ecd;" 
d="M-150 321q0 43 19.5 76.5t53 53t76.5 19.5h564q43 0 76.5 -19.5t53 -53t19.5 -76.5v-2q0 -43 -19.5 -76.5t-53 -53t-76.5 -19.5h-564q-43 0 -76.5 19.5t-53 53t-19.5 76.5v2z" />
    <glyph glyph-name="uni1ECE" unicode="&#x1ece;" 
d="M-150 321q0 43 19.5 76.5t53 53t76.5 19.5h564q43 0 76.5 -19.5t53 -53t19.5 -76.5v-2q0 -43 -19.5 -76.5t-53 -53t-76.5 -19.5h-564q-43 0 -76.5 19.5t-53 53t-19.5 76.5v2z" />
    <glyph glyph-name="uni1ECF" unicode="&#x1ecf;" 
d="M-150 321q0 43 19.5 76.5t53 53t76.5 19.5h564q43 0 76.5 -19.5t53 -53t19.5 -76.5v-2q0 -43 -19.5 -76.5t-53 -53t-76.5 -19.5h-564q-43 0 -76.5 19.5t-53 53t-19.5 76.5v2z" />
    <glyph glyph-name="uni1ED0" unicode="&#x1ed0;" 
d="M-150 321q0 43 19.5 76.5t53 53t76.5 19.5h564q43 0 76.5 -19.5t53 -53t19.5 -76.5v-2q0 -43 -19.5 -76.5t-53 -53t-76.5 -19.5h-564q-43 0 -76.5 19.5t-53 53t-19.5 76.5v2z" />
    <glyph glyph-name="uni1ED1" unicode="&#x1ed1;" 
d="M-150 321q0 43 19.5 76.5t53 53t76.5 19.5h564q43 0 76.5 -19.5t53 -53t19.5 -76.5v-2q0 -43 -19.5 -76.5t-53 -53t-76.5 -19.5h-564q-43 0 -76.5 19.5t-53 53t-19.5 76.5v2z" />
    <glyph glyph-name="uni1ED2" unicode="&#x1ed2;" 
d="M-150 321q0 43 19.5 76.5t53 53t76.5 19.5h564q43 0 76.5 -19.5t53 -53t19.5 -76.5v-2q0 -43 -19.5 -76.5t-53 -53t-76.5 -19.5h-564q-43 0 -76.5 19.5t-53 53t-19.5 76.5v2z" />
    <glyph glyph-name="uni1ED3" unicode="&#x1ed3;" 
d="M-150 321q0 43 19.5 76.5t53 53t76.5 19.5h564q43 0 76.5 -19.5t53 -53t19.5 -76.5v-2q0 -43 -19.5 -76.5t-53 -53t-76.5 -19.5h-564q-43 0 -76.5 19.5t-53 53t-19.5 76.5v2z" />
    <glyph glyph-name="uni1ED4" unicode="&#x1ed4;" 
d="M-150 321q0 43 19.5 76.5t53 53t76.5 19.5h564q43 0 76.5 -19.5t53 -53t19.5 -76.5v-2q0 -43 -19.5 -76.5t-53 -53t-76.5 -19.5h-564q-43 0 -76.5 19.5t-53 53t-19.5 76.5v2z" />
    <glyph glyph-name="uni1ED5" unicode="&#x1ed5;" 
d="M-150 321q0 43 19.5 76.5t53 53t76.5 19.5h564q43 0 76.5 -19.5t53 -53t19.5 -76.5v-2q0 -43 -19.5 -76.5t-53 -53t-76.5 -19.5h-564q-43 0 -76.5 19.5t-53 53t-19.5 76.5v2z" />
    <glyph glyph-name="uni1ED6" unicode="&#x1ed6;" 
d="M-150 321q0 43 19.5 76.5t53 53t76.5 19.5h564q43 0 76.5 -19.5t53 -53t19.5 -76.5v-2q0 -43 -19.5 -76.5t-53 -53t-76.5 -19.5h-564q-43 0 -76.5 19.5t-53 53t-19.5 76.5v2z" />
    <glyph glyph-name="uni1ED7" unicode="&#x1ed7;" 
d="M-150 321q0 43 19.5 76.5t53 53t76.5 19.5h564q43 0 76.5 -19.5t53 -53t19.5 -76.5v-2q0 -43 -19.5 -76.5t-53 -53t-76.5 -19.5h-564q-43 0 -76.5 19.5t-53 53t-19.5 76.5v2z" />
    <glyph glyph-name="uni1ED8" unicode="&#x1ed8;" 
d="M-150 321q0 43 19.5 76.5t53 53t76.5 19.5h564q43 0 76.5 -19.5t53 -53t19.5 -76.5v-2q0 -43 -19.5 -76.5t-53 -53t-76.5 -19.5h-564q-43 0 -76.5 19.5t-53 53t-19.5 76.5v2z" />
    <glyph glyph-name="uni1ED9" unicode="&#x1ed9;" 
d="M-150 321q0 43 19.5 76.5t53 53t76.5 19.5h564q43 0 76.5 -19.5t53 -53t19.5 -76.5v-2q0 -43 -19.5 -76.5t-53 -53t-76.5 -19.5h-564q-43 0 -76.5 19.5t-53 53t-19.5 76.5v2z" />
    <glyph glyph-name="uni1EDA" unicode="&#x1eda;" 
d="M-150 321q0 43 19.5 76.5t53 53t76.5 19.5h564q43 0 76.5 -19.5t53 -53t19.5 -76.5v-2q0 -43 -19.5 -76.5t-53 -53t-76.5 -19.5h-564q-43 0 -76.5 19.5t-53 53t-19.5 76.5v2z" />
    <glyph glyph-name="uni1EDB" unicode="&#x1edb;" 
d="M-150 321q0 43 19.5 76.5t53 53t76.5 19.5h564q43 0 76.5 -19.5t53 -53t19.5 -76.5v-2q0 -43 -19.5 -76.5t-53 -53t-76.5 -19.5h-564q-43 0 -76.5 19.5t-53 53t-19.5 76.5v2z" />
    <glyph glyph-name="uni1EDC" unicode="&#x1edc;" 
d="M-150 321q0 43 19.5 76.5t53 53t76.5 19.5h564q43 0 76.5 -19.5t53 -53t19.5 -76.5v-2q0 -43 -19.5 -76.5t-53 -53t-76.5 -19.5h-564q-43 0 -76.5 19.5t-53 53t-19.5 76.5v2z" />
    <glyph glyph-name="uni1EDD" unicode="&#x1edd;" 
d="M-150 321q0 43 19.5 76.5t53 53t76.5 19.5h564q43 0 76.5 -19.5t53 -53t19.5 -76.5v-2q0 -43 -19.5 -76.5t-53 -53t-76.5 -19.5h-564q-43 0 -76.5 19.5t-53 53t-19.5 76.5v2z" />
    <glyph glyph-name="uni1EDE" unicode="&#x1ede;" 
d="M-150 321q0 43 19.5 76.5t53 53t76.5 19.5h564q43 0 76.5 -19.5t53 -53t19.5 -76.5v-2q0 -43 -19.5 -76.5t-53 -53t-76.5 -19.5h-564q-43 0 -76.5 19.5t-53 53t-19.5 76.5v2z" />
    <glyph glyph-name="uni1EDF" unicode="&#x1edf;" 
d="M-150 321q0 43 19.5 76.5t53 53t76.5 19.5h564q43 0 76.5 -19.5t53 -53t19.5 -76.5v-2q0 -43 -19.5 -76.5t-53 -53t-76.5 -19.5h-564q-43 0 -76.5 19.5t-53 53t-19.5 76.5v2z" />
    <glyph glyph-name="uni1EE0" unicode="&#x1ee0;" 
d="M-150 321q0 43 19.5 76.5t53 53t76.5 19.5h564q43 0 76.5 -19.5t53 -53t19.5 -76.5v-2q0 -43 -19.5 -76.5t-53 -53t-76.5 -19.5h-564q-43 0 -76.5 19.5t-53 53t-19.5 76.5v2z" />
    <glyph glyph-name="uni1EE1" unicode="&#x1ee1;" 
d="M-150 321q0 43 19.5 76.5t53 53t76.5 19.5h564q43 0 76.5 -19.5t53 -53t19.5 -76.5v-2q0 -43 -19.5 -76.5t-53 -53t-76.5 -19.5h-564q-43 0 -76.5 19.5t-53 53t-19.5 76.5v2z" />
    <glyph glyph-name="uni1EE2" unicode="&#x1ee2;" 
d="M-150 321q0 43 19.5 76.5t53 53t76.5 19.5h564q43 0 76.5 -19.5t53 -53t19.5 -76.5v-2q0 -43 -19.5 -76.5t-53 -53t-76.5 -19.5h-564q-43 0 -76.5 19.5t-53 53t-19.5 76.5v2z" />
    <glyph glyph-name="uni1EE3" unicode="&#x1ee3;" 
d="M-150 321q0 43 19.5 76.5t53 53t76.5 19.5h564q43 0 76.5 -19.5t53 -53t19.5 -76.5v-2q0 -43 -19.5 -76.5t-53 -53t-76.5 -19.5h-564q-43 0 -76.5 19.5t-53 53t-19.5 76.5v2z" />
    <glyph glyph-name="uni1EE4" unicode="&#x1ee4;" 
d="M-150 321q0 43 19.5 76.5t53 53t76.5 19.5h564q43 0 76.5 -19.5t53 -53t19.5 -76.5v-2q0 -43 -19.5 -76.5t-53 -53t-76.5 -19.5h-564q-43 0 -76.5 19.5t-53 53t-19.5 76.5v2z" />
    <glyph glyph-name="uni1EE5" unicode="&#x1ee5;" 
d="M-150 321q0 43 19.5 76.5t53 53t76.5 19.5h564q43 0 76.5 -19.5t53 -53t19.5 -76.5v-2q0 -43 -19.5 -76.5t-53 -53t-76.5 -19.5h-564q-43 0 -76.5 19.5t-53 53t-19.5 76.5v2z" />
    <glyph glyph-name="uni1EE6" unicode="&#x1ee6;" 
d="M-150 321q0 43 19.5 76.5t53 53t76.5 19.5h564q43 0 76.5 -19.5t53 -53t19.5 -76.5v-2q0 -43 -19.5 -76.5t-53 -53t-76.5 -19.5h-564q-43 0 -76.5 19.5t-53 53t-19.5 76.5v2z" />
    <glyph glyph-name="uni1EE7" unicode="&#x1ee7;" 
d="M-150 321q0 43 19.5 76.5t53 53t76.5 19.5h564q43 0 76.5 -19.5t53 -53t19.5 -76.5v-2q0 -43 -19.5 -76.5t-53 -53t-76.5 -19.5h-564q-43 0 -76.5 19.5t-53 53t-19.5 76.5v2z" />
    <glyph glyph-name="uni1EE8" unicode="&#x1ee8;" 
d="M-150 321q0 43 19.5 76.5t53 53t76.5 19.5h564q43 0 76.5 -19.5t53 -53t19.5 -76.5v-2q0 -43 -19.5 -76.5t-53 -53t-76.5 -19.5h-564q-43 0 -76.5 19.5t-53 53t-19.5 76.5v2z" />
    <glyph glyph-name="uni1EE9" unicode="&#x1ee9;" 
d="M-150 321q0 43 19.5 76.5t53 53t76.5 19.5h564q43 0 76.5 -19.5t53 -53t19.5 -76.5v-2q0 -43 -19.5 -76.5t-53 -53t-76.5 -19.5h-564q-43 0 -76.5 19.5t-53 53t-19.5 76.5v2z" />
    <glyph glyph-name="uni1EEA" unicode="&#x1eea;" 
d="M-150 321q0 43 19.5 76.5t53 53t76.5 19.5h564q43 0 76.5 -19.5t53 -53t19.5 -76.5v-2q0 -43 -19.5 -76.5t-53 -53t-76.5 -19.5h-564q-43 0 -76.5 19.5t-53 53t-19.5 76.5v2z" />
    <glyph glyph-name="uni1EEB" unicode="&#x1eeb;" 
d="M-150 321q0 43 19.5 76.5t53 53t76.5 19.5h564q43 0 76.5 -19.5t53 -53t19.5 -76.5v-2q0 -43 -19.5 -76.5t-53 -53t-76.5 -19.5h-564q-43 0 -76.5 19.5t-53 53t-19.5 76.5v2z" />
    <glyph glyph-name="uni1EEC" unicode="&#x1eec;" 
d="M-150 321q0 43 19.5 76.5t53 53t76.5 19.5h564q43 0 76.5 -19.5t53 -53t19.5 -76.5v-2q0 -43 -19.5 -76.5t-53 -53t-76.5 -19.5h-564q-43 0 -76.5 19.5t-53 53t-19.5 76.5v2z" />
    <glyph glyph-name="uni1EED" unicode="&#x1eed;" 
d="M-150 321q0 43 19.5 76.5t53 53t76.5 19.5h564q43 0 76.5 -19.5t53 -53t19.5 -76.5v-2q0 -43 -19.5 -76.5t-53 -53t-76.5 -19.5h-564q-43 0 -76.5 19.5t-53 53t-19.5 76.5v2z" />
    <glyph glyph-name="uni1EEE" unicode="&#x1eee;" 
d="M-150 321q0 43 19.5 76.5t53 53t76.5 19.5h564q43 0 76.5 -19.5t53 -53t19.5 -76.5v-2q0 -43 -19.5 -76.5t-53 -53t-76.5 -19.5h-564q-43 0 -76.5 19.5t-53 53t-19.5 76.5v2z" />
    <glyph glyph-name="uni1EEF" unicode="&#x1eef;" 
d="M-150 321q0 43 19.5 76.5t53 53t76.5 19.5h564q43 0 76.5 -19.5t53 -53t19.5 -76.5v-2q0 -43 -19.5 -76.5t-53 -53t-76.5 -19.5h-564q-43 0 -76.5 19.5t-53 53t-19.5 76.5v2z" />
    <glyph glyph-name="uni1EF0" unicode="&#x1ef0;" 
d="M-150 321q0 43 19.5 76.5t53 53t76.5 19.5h564q43 0 76.5 -19.5t53 -53t19.5 -76.5v-2q0 -43 -19.5 -76.5t-53 -53t-76.5 -19.5h-564q-43 0 -76.5 19.5t-53 53t-19.5 76.5v2z" />
    <glyph glyph-name="uni1EF1" unicode="&#x1ef1;" 
d="M-150 321q0 43 19.5 76.5t53 53t76.5 19.5h564q43 0 76.5 -19.5t53 -53t19.5 -76.5v-2q0 -43 -19.5 -76.5t-53 -53t-76.5 -19.5h-564q-43 0 -76.5 19.5t-53 53t-19.5 76.5v2z" />
    <glyph glyph-name="Ygrave" unicode="&#x1ef2;" 
d="M-150 321q0 43 19.5 76.5t53 53t76.5 19.5h564q43 0 76.5 -19.5t53 -53t19.5 -76.5v-2q0 -43 -19.5 -76.5t-53 -53t-76.5 -19.5h-564q-43 0 -76.5 19.5t-53 53t-19.5 76.5v2z" />
    <glyph glyph-name="ygrave" unicode="&#x1ef3;" 
d="M-150 321q0 43 19.5 76.5t53 53t76.5 19.5h564q43 0 76.5 -19.5t53 -53t19.5 -76.5v-2q0 -43 -19.5 -76.5t-53 -53t-76.5 -19.5h-564q-43 0 -76.5 19.5t-53 53t-19.5 76.5v2z" />
    <glyph glyph-name="uni1EF4" unicode="&#x1ef4;" 
d="M-150 321q0 43 19.5 76.5t53 53t76.5 19.5h564q43 0 76.5 -19.5t53 -53t19.5 -76.5v-2q0 -43 -19.5 -76.5t-53 -53t-76.5 -19.5h-564q-43 0 -76.5 19.5t-53 53t-19.5 76.5v2z" />
    <glyph glyph-name="uni1EF5" unicode="&#x1ef5;" 
d="M-150 321q0 43 19.5 76.5t53 53t76.5 19.5h564q43 0 76.5 -19.5t53 -53t19.5 -76.5v-2q0 -43 -19.5 -76.5t-53 -53t-76.5 -19.5h-564q-43 0 -76.5 19.5t-53 53t-19.5 76.5v2z" />
    <glyph glyph-name="uni1EF6" unicode="&#x1ef6;" 
d="M-150 321q0 43 19.5 76.5t53 53t76.5 19.5h564q43 0 76.5 -19.5t53 -53t19.5 -76.5v-2q0 -43 -19.5 -76.5t-53 -53t-76.5 -19.5h-564q-43 0 -76.5 19.5t-53 53t-19.5 76.5v2z" />
    <glyph glyph-name="uni1EF7" unicode="&#x1ef7;" 
d="M-150 321q0 43 19.5 76.5t53 53t76.5 19.5h564q43 0 76.5 -19.5t53 -53t19.5 -76.5v-2q0 -43 -19.5 -76.5t-53 -53t-76.5 -19.5h-564q-43 0 -76.5 19.5t-53 53t-19.5 76.5v2z" />
    <glyph glyph-name="uni1EF8" unicode="&#x1ef8;" 
d="M-150 321q0 43 19.5 76.5t53 53t76.5 19.5h564q43 0 76.5 -19.5t53 -53t19.5 -76.5v-2q0 -43 -19.5 -76.5t-53 -53t-76.5 -19.5h-564q-43 0 -76.5 19.5t-53 53t-19.5 76.5v2z" />
    <glyph glyph-name="uni1EF9" unicode="&#x1ef9;" 
d="M-150 321q0 43 19.5 76.5t53 53t76.5 19.5h564q43 0 76.5 -19.5t53 -53t19.5 -76.5v-2q0 -43 -19.5 -76.5t-53 -53t-76.5 -19.5h-564q-43 0 -76.5 19.5t-53 53t-19.5 76.5v2z" />
    <glyph glyph-name="endash" unicode="&#x2013;" 
d="M-150 321q0 43 19.5 76.5t53 53t76.5 19.5h564q43 0 76.5 -19.5t53 -53t19.5 -76.5v-2q0 -43 -19.5 -76.5t-53 -53t-76.5 -19.5h-564q-43 0 -76.5 19.5t-53 53t-19.5 76.5v2z" />
    <glyph glyph-name="emdash" unicode="&#x2014;" 
d="M-150 321q0 43 19.5 76.5t53 53t76.5 19.5h564q43 0 76.5 -19.5t53 -53t19.5 -76.5v-2q0 -43 -19.5 -76.5t-53 -53t-76.5 -19.5h-564q-43 0 -76.5 19.5t-53 53t-19.5 76.5v2z" />
    <glyph glyph-name="quoteleft" unicode="&#x2018;" horiz-adv-x="286" 
d="M-150 321q0 43 19.5 76.5t53 53t76.5 19.5h288q43 0 76.5 -19.5t53 -53t19.5 -76.5v-2q0 -43 -19.5 -76.5t-53 -53t-76.5 -19.5h-288q-43 0 -76.5 19.5t-53 53t-19.5 76.5v2z" />
    <glyph glyph-name="quoteright" unicode="&#x2019;" horiz-adv-x="286" 
d="M-150 321q0 43 19.5 76.5t53 53t76.5 19.5h288q43 0 76.5 -19.5t53 -53t19.5 -76.5v-2q0 -43 -19.5 -76.5t-53 -53t-76.5 -19.5h-288q-43 0 -76.5 19.5t-53 53t-19.5 76.5v2z" />
    <glyph glyph-name="quotesinglbase" unicode="&#x201a;" horiz-adv-x="286" 
d="M-150 321q0 43 19.5 76.5t53 53t76.5 19.5h288q43 0 76.5 -19.5t53 -53t19.5 -76.5v-2q0 -43 -19.5 -76.5t-53 -53t-76.5 -19.5h-288q-43 0 -76.5 19.5t-53 53t-19.5 76.5v2z" />
    <glyph glyph-name="quotedblleft" unicode="&#x201c;" horiz-adv-x="286" 
d="M-150 321q0 43 19.5 76.5t53 53t76.5 19.5h288q43 0 76.5 -19.5t53 -53t19.5 -76.5v-2q0 -43 -19.5 -76.5t-53 -53t-76.5 -19.5h-288q-43 0 -76.5 19.5t-53 53t-19.5 76.5v2z" />
    <glyph glyph-name="quotedblright" unicode="&#x201d;" horiz-adv-x="286" 
d="M-150 321q0 43 19.5 76.5t53 53t76.5 19.5h288q43 0 76.5 -19.5t53 -53t19.5 -76.5v-2q0 -43 -19.5 -76.5t-53 -53t-76.5 -19.5h-288q-43 0 -76.5 19.5t-53 53t-19.5 76.5v2z" />
    <glyph glyph-name="quotedblbase" unicode="&#x201e;" horiz-adv-x="286" 
d="M-150 321q0 43 19.5 76.5t53 53t76.5 19.5h288q43 0 76.5 -19.5t53 -53t19.5 -76.5v-2q0 -43 -19.5 -76.5t-53 -53t-76.5 -19.5h-288q-43 0 -76.5 19.5t-53 53t-19.5 76.5v2z" />
    <glyph glyph-name="dagger" unicode="&#x2020;" horiz-adv-x="286" 
d="M-150 321q0 43 19.5 76.5t53 53t76.5 19.5h288q43 0 76.5 -19.5t53 -53t19.5 -76.5v-2q0 -43 -19.5 -76.5t-53 -53t-76.5 -19.5h-288q-43 0 -76.5 19.5t-53 53t-19.5 76.5v2z" />
    <glyph glyph-name="daggerdbl" unicode="&#x2021;" horiz-adv-x="286" 
d="M-150 321q0 43 19.5 76.5t53 53t76.5 19.5h288q43 0 76.5 -19.5t53 -53t19.5 -76.5v-2q0 -43 -19.5 -76.5t-53 -53t-76.5 -19.5h-288q-43 0 -76.5 19.5t-53 53t-19.5 76.5v2z" />
    <glyph glyph-name="bullet" unicode="&#x2022;" horiz-adv-x="760" 
d="M280 321q0 43 28 71t71 28h2q43 0 71 -28t28 -71v-2q0 -43 -28 -71t-71 -28h-2q-43 0 -71 28t-28 71v2z" />
    <glyph glyph-name="ellipsis" unicode="&#x2026;" horiz-adv-x="286" 
d="M-150 321q0 43 19.5 76.5t53 53t76.5 19.5h288q43 0 76.5 -19.5t53 -53t19.5 -76.5v-2q0 -43 -19.5 -76.5t-53 -53t-76.5 -19.5h-288q-43 0 -76.5 19.5t-53 53t-19.5 76.5v2z" />
    <glyph glyph-name="perthousand" unicode="&#x2030;" horiz-adv-x="286" 
d="M-150 321q0 43 19.5 76.5t53 53t76.5 19.5h288q43 0 76.5 -19.5t53 -53t19.5 -76.5v-2q0 -43 -19.5 -76.5t-53 -53t-76.5 -19.5h-288q-43 0 -76.5 19.5t-53 53t-19.5 76.5v2z" />
    <glyph glyph-name="guilsinglleft" unicode="&#x2039;" horiz-adv-x="286" 
d="M-150 321q0 43 19.5 76.5t53 53t76.5 19.5h288q43 0 76.5 -19.5t53 -53t19.5 -76.5v-2q0 -43 -19.5 -76.5t-53 -53t-76.5 -19.5h-288q-43 0 -76.5 19.5t-53 53t-19.5 76.5v2z" />
    <glyph glyph-name="guilsinglright" unicode="&#x203a;" horiz-adv-x="286" 
d="M-150 321q0 43 19.5 76.5t53 53t76.5 19.5h288q43 0 76.5 -19.5t53 -53t19.5 -76.5v-2q0 -43 -19.5 -76.5t-53 -53t-76.5 -19.5h-288q-43 0 -76.5 19.5t-53 53t-19.5 76.5v2z" />
    <glyph glyph-name="fraction" unicode="&#x2044;" 
d="M-150 321q0 43 19.5 76.5t53 53t76.5 19.5h564q43 0 76.5 -19.5t53 -53t19.5 -76.5v-2q0 -43 -19.5 -76.5t-53 -53t-76.5 -19.5h-564q-43 0 -76.5 19.5t-53 53t-19.5 76.5v2z" />
    <glyph glyph-name="uni2074" unicode="&#x2074;" 
d="M-150 321q0 43 19.5 76.5t53 53t76.5 19.5h564q43 0 76.5 -19.5t53 -53t19.5 -76.5v-2q0 -43 -19.5 -76.5t-53 -53t-76.5 -19.5h-564q-43 0 -76.5 19.5t-53 53t-19.5 76.5v2z" />
    <glyph glyph-name="Euro" unicode="&#x20ac;" horiz-adv-x="286" 
d="M-150 321q0 43 19.5 76.5t53 53t76.5 19.5h288q43 0 76.5 -19.5t53 -53t19.5 -76.5v-2q0 -43 -19.5 -76.5t-53 -53t-76.5 -19.5h-288q-43 0 -76.5 19.5t-53 53t-19.5 76.5v2z" />
    <glyph glyph-name="uni210A" unicode="&#x210a;" 
d="M-150 321q0 43 19.5 76.5t53 53t76.5 19.5h564q43 0 76.5 -19.5t53 -53t19.5 -76.5v-2q0 -43 -19.5 -76.5t-53 -53t-76.5 -19.5h-564q-43 0 -76.5 19.5t-53 53t-19.5 76.5v2z" />
    <glyph glyph-name="trademark" unicode="&#x2122;" horiz-adv-x="286" 
d="M-150 321q0 43 19.5 76.5t53 53t76.5 19.5h288q43 0 76.5 -19.5t53 -53t19.5 -76.5v-2q0 -43 -19.5 -76.5t-53 -53t-76.5 -19.5h-288q-43 0 -76.5 19.5t-53 53t-19.5 76.5v2z" />
    <glyph glyph-name="oneeighth" unicode="&#x215b;" 
d="M-150 321q0 43 19.5 76.5t53 53t76.5 19.5h564q43 0 76.5 -19.5t53 -53t19.5 -76.5v-2q0 -43 -19.5 -76.5t-53 -53t-76.5 -19.5h-564q-43 0 -76.5 19.5t-53 53t-19.5 76.5v2z" />
    <glyph glyph-name="threeeighths" unicode="&#x215c;" 
d="M-150 321q0 43 19.5 76.5t53 53t76.5 19.5h564q43 0 76.5 -19.5t53 -53t19.5 -76.5v-2q0 -43 -19.5 -76.5t-53 -53t-76.5 -19.5h-564q-43 0 -76.5 19.5t-53 53t-19.5 76.5v2z" />
    <glyph glyph-name="fiveeighths" unicode="&#x215d;" 
d="M-150 321q0 43 19.5 76.5t53 53t76.5 19.5h564q43 0 76.5 -19.5t53 -53t19.5 -76.5v-2q0 -43 -19.5 -76.5t-53 -53t-76.5 -19.5h-564q-43 0 -76.5 19.5t-53 53t-19.5 76.5v2z" />
    <glyph glyph-name="seveneighths" unicode="&#x215e;" 
d="M-150 321q0 43 19.5 76.5t53 53t76.5 19.5h564q43 0 76.5 -19.5t53 -53t19.5 -76.5v-2q0 -43 -19.5 -76.5t-53 -53t-76.5 -19.5h-564q-43 0 -76.5 19.5t-53 53t-19.5 76.5v2z" />
    <glyph glyph-name="arrowleft" unicode="&#x2190;" horiz-adv-x="286" 
d="M-150 321q0 43 19.5 76.5t53 53t76.5 19.5h288q43 0 76.5 -19.5t53 -53t19.5 -76.5v-2q0 -43 -19.5 -76.5t-53 -53t-76.5 -19.5h-288q-43 0 -76.5 19.5t-53 53t-19.5 76.5v2z" />
    <glyph glyph-name="arrowup" unicode="&#x2191;" horiz-adv-x="286" 
d="M-150 321q0 43 19.5 76.5t53 53t76.5 19.5h288q43 0 76.5 -19.5t53 -53t19.5 -76.5v-2q0 -43 -19.5 -76.5t-53 -53t-76.5 -19.5h-288q-43 0 -76.5 19.5t-53 53t-19.5 76.5v2z" />
    <glyph glyph-name="arrowright" unicode="&#x2192;" horiz-adv-x="286" 
d="M-150 321q0 43 19.5 76.5t53 53t76.5 19.5h288q43 0 76.5 -19.5t53 -53t19.5 -76.5v-2q0 -43 -19.5 -76.5t-53 -53t-76.5 -19.5h-288q-43 0 -76.5 19.5t-53 53t-19.5 76.5v2z" />
    <glyph glyph-name="arrowdown" unicode="&#x2193;" horiz-adv-x="286" 
d="M-150 321q0 43 19.5 76.5t53 53t76.5 19.5h288q43 0 76.5 -19.5t53 -53t19.5 -76.5v-2q0 -43 -19.5 -76.5t-53 -53t-76.5 -19.5h-288q-43 0 -76.5 19.5t-53 53t-19.5 76.5v2z" />
    <glyph glyph-name="arrowboth" unicode="&#x2194;" horiz-adv-x="286" 
d="M-150 321q0 43 19.5 76.5t53 53t76.5 19.5h288q43 0 76.5 -19.5t53 -53t19.5 -76.5v-2q0 -43 -19.5 -76.5t-53 -53t-76.5 -19.5h-288q-43 0 -76.5 19.5t-53 53t-19.5 76.5v2z" />
    <glyph glyph-name="arrowupdn" unicode="&#x2195;" horiz-adv-x="286" 
d="M-150 321q0 43 19.5 76.5t53 53t76.5 19.5h288q43 0 76.5 -19.5t53 -53t19.5 -76.5v-2q0 -43 -19.5 -76.5t-53 -53t-76.5 -19.5h-288q-43 0 -76.5 19.5t-53 53t-19.5 76.5v2z" />
    <glyph glyph-name="uni2196" unicode="&#x2196;" horiz-adv-x="286" 
d="M-150 321q0 43 19.5 76.5t53 53t76.5 19.5h288q43 0 76.5 -19.5t53 -53t19.5 -76.5v-2q0 -43 -19.5 -76.5t-53 -53t-76.5 -19.5h-288q-43 0 -76.5 19.5t-53 53t-19.5 76.5v2z" />
    <glyph glyph-name="uni2197" unicode="&#x2197;" horiz-adv-x="286" 
d="M-150 321q0 43 19.5 76.5t53 53t76.5 19.5h288q43 0 76.5 -19.5t53 -53t19.5 -76.5v-2q0 -43 -19.5 -76.5t-53 -53t-76.5 -19.5h-288q-43 0 -76.5 19.5t-53 53t-19.5 76.5v2z" />
    <glyph glyph-name="uni2198" unicode="&#x2198;" horiz-adv-x="286" 
d="M-150 321q0 43 19.5 76.5t53 53t76.5 19.5h288q43 0 76.5 -19.5t53 -53t19.5 -76.5v-2q0 -43 -19.5 -76.5t-53 -53t-76.5 -19.5h-288q-43 0 -76.5 19.5t-53 53t-19.5 76.5v2z" />
    <glyph glyph-name="uni2199" unicode="&#x2199;" horiz-adv-x="286" 
d="M-150 321q0 43 19.5 76.5t53 53t76.5 19.5h288q43 0 76.5 -19.5t53 -53t19.5 -76.5v-2q0 -43 -19.5 -76.5t-53 -53t-76.5 -19.5h-288q-43 0 -76.5 19.5t-53 53t-19.5 76.5v2z" />
    <glyph glyph-name="partialdiff" unicode="&#x2202;" horiz-adv-x="286" 
d="M-150 321q0 43 19.5 76.5t53 53t76.5 19.5h288q43 0 76.5 -19.5t53 -53t19.5 -76.5v-2q0 -43 -19.5 -76.5t-53 -53t-76.5 -19.5h-288q-43 0 -76.5 19.5t-53 53t-19.5 76.5v2z" />
    <glyph glyph-name="emptyset" unicode="&#x2205;" horiz-adv-x="286" 
d="M-150 321q0 43 19.5 76.5t53 53t76.5 19.5h288q43 0 76.5 -19.5t53 -53t19.5 -76.5v-2q0 -43 -19.5 -76.5t-53 -53t-76.5 -19.5h-288q-43 0 -76.5 19.5t-53 53t-19.5 76.5v2z" />
    <glyph glyph-name="product" unicode="&#x220f;" horiz-adv-x="286" 
d="M-150 321q0 43 19.5 76.5t53 53t76.5 19.5h288q43 0 76.5 -19.5t53 -53t19.5 -76.5v-2q0 -43 -19.5 -76.5t-53 -53t-76.5 -19.5h-288q-43 0 -76.5 19.5t-53 53t-19.5 76.5v2z" />
    <glyph glyph-name="summation" unicode="&#x2211;" horiz-adv-x="286" 
d="M-150 321q0 43 19.5 76.5t53 53t76.5 19.5h288q43 0 76.5 -19.5t53 -53t19.5 -76.5v-2q0 -43 -19.5 -76.5t-53 -53t-76.5 -19.5h-288q-43 0 -76.5 19.5t-53 53t-19.5 76.5v2z" />
    <glyph glyph-name="minus" unicode="&#x2212;" horiz-adv-x="286" 
d="M-150 321q0 43 19.5 76.5t53 53t76.5 19.5h288q43 0 76.5 -19.5t53 -53t19.5 -76.5v-2q0 -43 -19.5 -76.5t-53 -53t-76.5 -19.5h-288q-43 0 -76.5 19.5t-53 53t-19.5 76.5v2z" />
    <glyph glyph-name="uni2215" unicode="&#x2215;" 
d="M-150 321q0 43 19.5 76.5t53 53t76.5 19.5h564q43 0 76.5 -19.5t53 -53t19.5 -76.5v-2q0 -43 -19.5 -76.5t-53 -53t-76.5 -19.5h-564q-43 0 -76.5 19.5t-53 53t-19.5 76.5v2z" />
    <glyph glyph-name="radical" unicode="&#x221a;" horiz-adv-x="286" 
d="M-150 321q0 43 19.5 76.5t53 53t76.5 19.5h288q43 0 76.5 -19.5t53 -53t19.5 -76.5v-2q0 -43 -19.5 -76.5t-53 -53t-76.5 -19.5h-288q-43 0 -76.5 19.5t-53 53t-19.5 76.5v2z" />
    <glyph glyph-name="infinity" unicode="&#x221e;" horiz-adv-x="286" 
d="M-150 321q0 43 19.5 76.5t53 53t76.5 19.5h288q43 0 76.5 -19.5t53 -53t19.5 -76.5v-2q0 -43 -19.5 -76.5t-53 -53t-76.5 -19.5h-288q-43 0 -76.5 19.5t-53 53t-19.5 76.5v2z" />
    <glyph glyph-name="integral" unicode="&#x222b;" horiz-adv-x="286" 
d="M-150 321q0 43 19.5 76.5t53 53t76.5 19.5h288q43 0 76.5 -19.5t53 -53t19.5 -76.5v-2q0 -43 -19.5 -76.5t-53 -53t-76.5 -19.5h-288q-43 0 -76.5 19.5t-53 53t-19.5 76.5v2z" />
    <glyph glyph-name="approxequal" unicode="&#x2248;" horiz-adv-x="286" 
d="M-150 321q0 43 19.5 76.5t53 53t76.5 19.5h288q43 0 76.5 -19.5t53 -53t19.5 -76.5v-2q0 -43 -19.5 -76.5t-53 -53t-76.5 -19.5h-288q-43 0 -76.5 19.5t-53 53t-19.5 76.5v2z" />
    <glyph glyph-name="notequal" unicode="&#x2260;" horiz-adv-x="286" 
d="M-150 321q0 43 19.5 76.5t53 53t76.5 19.5h288q43 0 76.5 -19.5t53 -53t19.5 -76.5v-2q0 -43 -19.5 -76.5t-53 -53t-76.5 -19.5h-288q-43 0 -76.5 19.5t-53 53t-19.5 76.5v2z" />
    <glyph glyph-name="lessequal" unicode="&#x2264;" horiz-adv-x="286" 
d="M-150 321q0 43 19.5 76.5t53 53t76.5 19.5h288q43 0 76.5 -19.5t53 -53t19.5 -76.5v-2q0 -43 -19.5 -76.5t-53 -53t-76.5 -19.5h-288q-43 0 -76.5 19.5t-53 53t-19.5 76.5v2z" />
    <glyph glyph-name="greaterequal" unicode="&#x2265;" horiz-adv-x="286" 
d="M-150 321q0 43 19.5 76.5t53 53t76.5 19.5h288q43 0 76.5 -19.5t53 -53t19.5 -76.5v-2q0 -43 -19.5 -76.5t-53 -53t-76.5 -19.5h-288q-43 0 -76.5 19.5t-53 53t-19.5 76.5v2z" />
    <glyph glyph-name="lozenge" unicode="&#x25ca;" horiz-adv-x="286" 
d="M-150 321q0 43 19.5 76.5t53 53t76.5 19.5h288q43 0 76.5 -19.5t53 -53t19.5 -76.5v-2q0 -43 -19.5 -76.5t-53 -53t-76.5 -19.5h-288q-43 0 -76.5 19.5t-53 53t-19.5 76.5v2z" />
    <glyph glyph-name="uni2C64" unicode="&#x2c64;" 
d="M-150 321q0 43 19.5 76.5t53 53t76.5 19.5h564q43 0 76.5 -19.5t53 -53t19.5 -76.5v-2q0 -43 -19.5 -76.5t-53 -53t-76.5 -19.5h-564q-43 0 -76.5 19.5t-53 53t-19.5 76.5v2z" />
    <glyph glyph-name="uni2C6D" unicode="&#x2c6d;" 
d="M-150 321q0 43 19.5 76.5t53 53t76.5 19.5h564q43 0 76.5 -19.5t53 -53t19.5 -76.5v-2q0 -43 -19.5 -76.5t-53 -53t-76.5 -19.5h-564q-43 0 -76.5 19.5t-53 53t-19.5 76.5v2z" />
    <glyph glyph-name="uni2C72" unicode="&#x2c72;" 
d="M-150 321q0 43 19.5 76.5t53 53t76.5 19.5h564q43 0 76.5 -19.5t53 -53t19.5 -76.5v-2q0 -43 -19.5 -76.5t-53 -53t-76.5 -19.5h-564q-43 0 -76.5 19.5t-53 53t-19.5 76.5v2z" />
    <glyph glyph-name="uni2C73" unicode="&#x2c73;" 
d="M-150 321q0 43 19.5 76.5t53 53t76.5 19.5h564q43 0 76.5 -19.5t53 -53t19.5 -76.5v-2q0 -43 -19.5 -76.5t-53 -53t-76.5 -19.5h-564q-43 0 -76.5 19.5t-53 53t-19.5 76.5v2z" />
    <glyph glyph-name="i.loclTRK" horiz-adv-x="286" 
d="M-150 321q0 43 19.5 76.5t53 53t76.5 19.5h288q43 0 76.5 -19.5t53 -53t19.5 -76.5v-2q0 -43 -19.5 -76.5t-53 -53t-76.5 -19.5h-288q-43 0 -76.5 19.5t-53 53t-19.5 76.5v2z" />
    <glyph glyph-name="zero.dnom" 
d="M-150 321q0 43 19.5 76.5t53 53t76.5 19.5h564q43 0 76.5 -19.5t53 -53t19.5 -76.5v-2q0 -43 -19.5 -76.5t-53 -53t-76.5 -19.5h-564q-43 0 -76.5 19.5t-53 53t-19.5 76.5v2z" />
    <glyph glyph-name="one.dnom" 
d="M-150 321q0 43 19.5 76.5t53 53t76.5 19.5h564q43 0 76.5 -19.5t53 -53t19.5 -76.5v-2q0 -43 -19.5 -76.5t-53 -53t-76.5 -19.5h-564q-43 0 -76.5 19.5t-53 53t-19.5 76.5v2z" />
    <glyph glyph-name="two.dnom" 
d="M-150 321q0 43 19.5 76.5t53 53t76.5 19.5h564q43 0 76.5 -19.5t53 -53t19.5 -76.5v-2q0 -43 -19.5 -76.5t-53 -53t-76.5 -19.5h-564q-43 0 -76.5 19.5t-53 53t-19.5 76.5v2z" />
    <glyph glyph-name="three.dnom" 
d="M-150 321q0 43 19.5 76.5t53 53t76.5 19.5h564q43 0 76.5 -19.5t53 -53t19.5 -76.5v-2q0 -43 -19.5 -76.5t-53 -53t-76.5 -19.5h-564q-43 0 -76.5 19.5t-53 53t-19.5 76.5v2z" />
    <glyph glyph-name="four.dnom" 
d="M-150 321q0 43 19.5 76.5t53 53t76.5 19.5h564q43 0 76.5 -19.5t53 -53t19.5 -76.5v-2q0 -43 -19.5 -76.5t-53 -53t-76.5 -19.5h-564q-43 0 -76.5 19.5t-53 53t-19.5 76.5v2z" />
    <glyph glyph-name="five.dnom" 
d="M-150 321q0 43 19.5 76.5t53 53t76.5 19.5h564q43 0 76.5 -19.5t53 -53t19.5 -76.5v-2q0 -43 -19.5 -76.5t-53 -53t-76.5 -19.5h-564q-43 0 -76.5 19.5t-53 53t-19.5 76.5v2z" />
    <glyph glyph-name="six.dnom" 
d="M-150 321q0 43 19.5 76.5t53 53t76.5 19.5h564q43 0 76.5 -19.5t53 -53t19.5 -76.5v-2q0 -43 -19.5 -76.5t-53 -53t-76.5 -19.5h-564q-43 0 -76.5 19.5t-53 53t-19.5 76.5v2z" />
    <glyph glyph-name="seven.dnom" 
d="M-150 321q0 43 19.5 76.5t53 53t76.5 19.5h564q43 0 76.5 -19.5t53 -53t19.5 -76.5v-2q0 -43 -19.5 -76.5t-53 -53t-76.5 -19.5h-564q-43 0 -76.5 19.5t-53 53t-19.5 76.5v2z" />
    <glyph glyph-name="eight.dnom" 
d="M-150 321q0 43 19.5 76.5t53 53t76.5 19.5h564q43 0 76.5 -19.5t53 -53t19.5 -76.5v-2q0 -43 -19.5 -76.5t-53 -53t-76.5 -19.5h-564q-43 0 -76.5 19.5t-53 53t-19.5 76.5v2z" />
    <glyph glyph-name="nine.dnom" 
d="M-150 321q0 43 19.5 76.5t53 53t76.5 19.5h564q43 0 76.5 -19.5t53 -53t19.5 -76.5v-2q0 -43 -19.5 -76.5t-53 -53t-76.5 -19.5h-564q-43 0 -76.5 19.5t-53 53t-19.5 76.5v2z" />
    <glyph glyph-name="zero.numr" 
d="M-150 321q0 43 19.5 76.5t53 53t76.5 19.5h564q43 0 76.5 -19.5t53 -53t19.5 -76.5v-2q0 -43 -19.5 -76.5t-53 -53t-76.5 -19.5h-564q-43 0 -76.5 19.5t-53 53t-19.5 76.5v2z" />
    <glyph glyph-name="one.numr" 
d="M-150 321q0 43 19.5 76.5t53 53t76.5 19.5h564q43 0 76.5 -19.5t53 -53t19.5 -76.5v-2q0 -43 -19.5 -76.5t-53 -53t-76.5 -19.5h-564q-43 0 -76.5 19.5t-53 53t-19.5 76.5v2z" />
    <glyph glyph-name="two.numr" 
d="M-150 321q0 43 19.5 76.5t53 53t76.5 19.5h564q43 0 76.5 -19.5t53 -53t19.5 -76.5v-2q0 -43 -19.5 -76.5t-53 -53t-76.5 -19.5h-564q-43 0 -76.5 19.5t-53 53t-19.5 76.5v2z" />
    <glyph glyph-name="three.numr" 
d="M-150 321q0 43 19.5 76.5t53 53t76.5 19.5h564q43 0 76.5 -19.5t53 -53t19.5 -76.5v-2q0 -43 -19.5 -76.5t-53 -53t-76.5 -19.5h-564q-43 0 -76.5 19.5t-53 53t-19.5 76.5v2z" />
    <glyph glyph-name="four.numr" 
d="M-150 321q0 43 19.5 76.5t53 53t76.5 19.5h564q43 0 76.5 -19.5t53 -53t19.5 -76.5v-2q0 -43 -19.5 -76.5t-53 -53t-76.5 -19.5h-564q-43 0 -76.5 19.5t-53 53t-19.5 76.5v2z" />
    <glyph glyph-name="five.numr" 
d="M-150 321q0 43 19.5 76.5t53 53t76.5 19.5h564q43 0 76.5 -19.5t53 -53t19.5 -76.5v-2q0 -43 -19.5 -76.5t-53 -53t-76.5 -19.5h-564q-43 0 -76.5 19.5t-53 53t-19.5 76.5v2z" />
    <glyph glyph-name="six.numr" 
d="M-150 321q0 43 19.5 76.5t53 53t76.5 19.5h564q43 0 76.5 -19.5t53 -53t19.5 -76.5v-2q0 -43 -19.5 -76.5t-53 -53t-76.5 -19.5h-564q-43 0 -76.5 19.5t-53 53t-19.5 76.5v2z" />
    <glyph glyph-name="seven.numr" 
d="M-150 321q0 43 19.5 76.5t53 53t76.5 19.5h564q43 0 76.5 -19.5t53 -53t19.5 -76.5v-2q0 -43 -19.5 -76.5t-53 -53t-76.5 -19.5h-564q-43 0 -76.5 19.5t-53 53t-19.5 76.5v2z" />
    <glyph glyph-name="eight.numr" 
d="M-150 321q0 43 19.5 76.5t53 53t76.5 19.5h564q43 0 76.5 -19.5t53 -53t19.5 -76.5v-2q0 -43 -19.5 -76.5t-53 -53t-76.5 -19.5h-564q-43 0 -76.5 19.5t-53 53t-19.5 76.5v2z" />
    <glyph glyph-name="nine.numr" 
d="M-150 321q0 43 19.5 76.5t53 53t76.5 19.5h564q43 0 76.5 -19.5t53 -53t19.5 -76.5v-2q0 -43 -19.5 -76.5t-53 -53t-76.5 -19.5h-564q-43 0 -76.5 19.5t-53 53t-19.5 76.5v2z" />
  </font>
</defs>
</svg>
